  0
SECTION
  2
HEADER
  9
$ACADVER
  1
AC1015
  9
$ACADMAINTVER
 70
     6
  9
$DWGCODEPAGE
  3
ANSI_1252
  9
$INSBASE
 10
0.0
 20
0.0
 30
0.0
  9
$EXTMIN
 10
0.0
 20
0.0
 30
0.0
  9
$EXTMAX
 10
210.0
 20
297.0
 30
0.0
  9
$LIMMIN
 10
0.0
 20
0.0
  9
$LIMMAX
 10
210.0
 20
297.0
  9
$ORTHOMODE
 70
     0
  9
$REGENMODE
 70
     1
  9
$FILLMODE
 70
     1
  9
$QTEXTMODE
 70
     0
  9
$MIRRTEXT
 70
     1
  9
$LTSCALE
 40
1.0
  9
$ATTMODE
 70
     1
  9
$TEXTSIZE
 40
3.0
  9
$TRACEWID
 40
1.0
  9
$TEXTSTYLE
  7
STANDARD
  9
$CLAYER
  8
0
  9
$CELTYPE
  6
ByLayer
  9
$CECOLOR
 62
   256
  9
$CELTSCALE
 40
1.0
  9
$DISPSILH
 70
     0
  9
$DIMSCALE
 40
1.0
  9
$DIMASZ
 40
2.5
  9
$DIMEXO
 40
1.0
  9
$DIMDLI
 40
3.75
  9
$DIMRND
 40
0.0
  9
$DIMDLE
 40
0.0
  9
$DIMEXE
 40
1.0
  9
$DIMTP
 40
0.0
  9
$DIMTM
 40
0.0
  9
$DIMTXT
 40
3.0
  9
$DIMCEN
 40
2.5
  9
$DIMTSZ
 40
0.0
  9
$DIMTOL
 70
     0
  9
$DIMLIM
 70
     0
  9
$DIMTIH
 70
     1
  9
$DIMTOH
 70
     1
  9
$DIMSE1
 70
     0
  9
$DIMSE2
 70
     0
  9
$DIMTAD
 70
     1
  9
$DIMZIN
 70
     0
  9
$DIMBLK
  1

  9
$DIMASO
 70
     1
  9
$DIMSHO
 70
     1
  9
$DIMPOST
  1

  9
$DIMAPOST
  1

  9
$DIMALT
 70
     0
  9
$DIMALTD
 70
     3
  9
$DIMALTF
 40
0.0393700787
  9
$DIMLFAC
 40
1.0
  9
$DIMTOFL
 70
     1
  9
$DIMTVP
 40
0.0
  9
$DIMTIX
 70
     0
  9
$DIMSOXD
 70
     0
  9
$DIMSAH
 70
     0
  9
$DIMBLK1
  1

  9
$DIMBLK2
  1

  9
$DIMSTYLE
  2
ISO-25
  9
$DIMCLRD
 70
     0
  9
$DIMCLRE
 70
     0
  9
$DIMCLRT
 70
     0
  9
$DIMTFAC
 40
1.0
  9
$DIMGAP
 40
1.524
  9
$DIMJUST
 70
     0
  9
$DIMSD1
 70
     0
  9
$DIMSD2
 70
     0
  9
$DIMTOLJ
 70
     0
  9
$DIMTZIN
 70
     0
  9
$DIMALTZ
 70
     0
  9
$DIMALTTZ
 70
     0
  9
$DIMUPT
 70
     0
  9
$DIMDEC
 70
     3
  9
$DIMTDEC
 70
     3
  9
$DIMALTU
 70
     2
  9
$DIMALTTD
 70
     3
  9
$DIMTXSTY
  7
STANDARD
  9
$DIMAUNIT
 70
     0
  9
$DIMADEC
 70
     3
  9
$DIMALTRND
 40
0.0
  9
$DIMAZIN
 70
     0
  9
$DIMDSEP
 70
    44
  9
$DIMATFIT
 70
     3
  9
$DIMFRAC
 70
     0
  9
$DIMLDRBLK
  1

  9
$DIMLUNIT
 70
     2
  9
$DIMLWD
 70
    -2
  9
$DIMLWE
 70
    -2
  9
$DIMTMOVE
 70
     0
  9
$LUNITS
 70
     2
  9
$LUPREC
 70
     3
  9
$SKETCHINC
 40
1.0
  9
$FILLETRAD
 40
10.0
  9
$AUNITS
 70
     0
  9
$AUPREC
 70
     3
  9
$MENU
  1
.
  9
$ELEVATION
 40
0.0
  9
$PELEVATION
 40
0.0
  9
$THICKNESS
 40
0.0
  9
$LIMCHECK
 70
     0
  9
$CHAMFERA
 40
0.0
  9
$CHAMFERB
 40
0.0
  9
$CHAMFERC
 40
0.0
  9
$CHAMFERD
 40
0.0
  9
$SKPOLY
 70
     0
  9
$TDCREATE
 40
2459605.417423496
  9
$TDUCREATE
 40
2459605.375756829
  9
$TDUPDATE
 40
2459605.417426724
  9
$TDUUPDATE
 40
2459605.375760058
  9
$TDINDWG
 40
0.0000000116
  9
$TDUSRTIMER
 40
0.0000000116
  9
$USRTIMER
 70
     1
  9
$ANGBASE
 50
0.0
  9
$ANGDIR
 70
     0
  9
$PDMODE
 70
     0
  9
$PDSIZE
 40
-1.0
  9
$PLINEWID
 40
0.0
  9
$SPLFRAME
 70
     0
  9
$SPLINETYPE
 70
     6
  9
$SPLINESEGS
 70
     8
  9
$HANDSEED
  5
422
  9
$SURFTAB1
 70
     6
  9
$SURFTAB2
 70
     6
  9
$SURFTYPE
 70
     6
  9
$SURFU
 70
     6
  9
$SURFV
 70
     6
  9
$UCSBASE
  2

  9
$UCSNAME
  2

  9
$UCSORG
 10
0.0
 20
0.0
 30
0.0
  9
$UCSXDIR
 10
1.0
 20
0.0
 30
0.0
  9
$UCSYDIR
 10
0.0
 20
1.0
 30
0.0
  9
$UCSORTHOREF
  2

  9
$UCSORTHOVIEW
 70
     0
  9
$UCSORGTOP
 10
0.0
 20
0.0
 30
0.0
  9
$UCSORGBOTTOM
 10
0.0
 20
0.0
 30
0.0
  9
$UCSORGLEFT
 10
0.0
 20
0.0
 30
0.0
  9
$UCSORGRIGHT
 10
0.0
 20
0.0
 30
0.0
  9
$UCSORGFRONT
 10
0.0
 20
0.0
 30
0.0
  9
$UCSORGBACK
 10
0.0
 20
0.0
 30
0.0
  9
$PUCSBASE
  2

  9
$PUCSNAME
  2

  9
$PUCSORG
 10
0.0
 20
0.0
 30
0.0
  9
$PUCSXDIR
 10
1.0
 20
0.0
 30
0.0
  9
$PUCSYDIR
 10
0.0
 20
1.0
 30
0.0
  9
$PUCSORTHOREF
  2

  9
$PUCSORTHOVIEW
 70
     0
  9
$PUCSORGTOP
 10
0.0
 20
0.0
 30
0.0
  9
$PUCSORGBOTTOM
 10
0.0
 20
0.0
 30
0.0
  9
$PUCSORGLEFT
 10
0.0
 20
0.0
 30
0.0
  9
$PUCSORGRIGHT
 10
0.0
 20
0.0
 30
0.0
  9
$PUCSORGFRONT
 10
0.0
 20
0.0
 30
0.0
  9
$PUCSORGBACK
 10
0.0
 20
0.0
 30
0.0
  9
$USERI1
 70
     0
  9
$USERI2
 70
     0
  9
$USERI3
 70
     0
  9
$USERI4
 70
     0
  9
$USERI5
 70
     0
  9
$USERR1
 40
0.0
  9
$USERR2
 40
0.0
  9
$USERR3
 40
0.0
  9
$USERR4
 40
0.0
  9
$USERR5
 40
0.0
  9
$WORLDVIEW
 70
     1
  9
$SHADEDGE
 70
     3
  9
$SHADEDIF
 70
    70
  9
$TILEMODE
 70
     1
  9
$MAXACTVP
 70
    64
  9
$PINSBASE
 10
0.0
 20
0.0
 30
0.0
  9
$PLIMCHECK
 70
     0
  9
$PEXTMIN
 10
1.0000000000E+20
 20
1.0000000000E+20
 30
1.0000000000E+20
  9
$PEXTMAX
 10
-1.0000000000E+20
 20
-1.0000000000E+20
 30
-1.0000000000E+20
  9
$PLIMMIN
 10
0.0
 20
0.0
  9
$PLIMMAX
 10
420.0
 20
297.0
  9
$UNITMODE
 70
     0
  9
$VISRETAIN
 70
     1
  9
$PLINEGEN
 70
     0
  9
$PSLTSCALE
 70
     1
  9
$TREEDEPTH
 70
  3020
  9
$CMLSTYLE
  2
Standard
  9
$CMLJUST
 70
     0
  9
$CMLSCALE
 40
20.0
  9
$PROXYGRAPHICS
 70
     1
  9
$MEASUREMENT
 70
     1
  9
$CELWEIGHT
370
    -1
  9
$ENDCAPS
280
     0
  9
$JOINSTYLE
280
     0
  9
$LWDISPLAY
290
     1
  9
$INSUNITS
 70
     4
  9
$HYPERLINKBASE
  1

  9
$STYLESHEET
  1

  9
$XEDIT
290
     1
  9
$CEPSNTYPE
380
     0
  9
$PSTYLEMODE
290
     1
  9
$FINGERPRINTGUID
  2
{402D3726-5C92-40F3-918E-6F466B8EB9C1}
  9
$VERSIONGUID
  2
{FAEB1C32-E019-11D5-929B-00C0DF256EC4}
  9
$EXTNAMES
290
     1
  9
$PSVPSCALE
 40
0.0
  9
$OLESTARTUP
290
     0
  0
ENDSEC
  0
SECTION
  2
CLASSES
  0
CLASS
  1
ACDBDICTIONARYWDFLT
  2
AcDbDictionaryWithDefault
  3
ObjectDBX Classes
 90
        0
280
     0
281
     0
  0
CLASS
  1
VISUALSTYLE
  2
AcDbVisualStyle
  3
ObjectDBX Classes
 90
     4095
280
     0
281
     0
  0
CLASS
  1
MATERIAL
  2
AcDbMaterial
  3
ObjectDBX Classes
 90
     1153
280
     0
281
     0
  0
CLASS
  1
SCALE
  2
AcDbScale
  3
ObjectDBX Classes
 90
     1153
280
     0
281
     0
  0
CLASS
  1
TABLESTYLE
  2
AcDbTableStyle
  3
ObjectDBX Classes
 90
     4095
280
     0
281
     0
  0
CLASS
  1
MLEADERSTYLE
  2
AcDbMLeaderStyle
  3
ACDB_MLEADERSTYLE_CLASS
 90
     4095
280
     0
281
     0
  0
CLASS
  1
SUN
  2
AcDbSun
  3
SCENEOE
 90
     1153
280
     0
281
     0
  0
CLASS
  1
ACDBPLACEHOLDER
  2
AcDbPlaceHolder
  3
ObjectDBX Classes
 90
        0
280
     0
281
     0
  0
CLASS
  1
LAYOUT
  2
AcDbLayout
  3
ObjectDBX Classes
 90
        0
280
     0
281
     0
  0
ENDSEC
  0
SECTION
  2
TABLES
  0
TABLE
  2
VPORT
  5
8
330
0
100
AcDbSymbolTable
 70
     1
  0
VPORT
  5
29
330
8
100
AcDbSymbolTableRecord
100
AcDbViewportTableRecord
  2
*Active
 70
     0
 10
0.0
 20
0.0
 11
1.0
 21
1.0
 12
105.0
 22
148.5
 13
0.0
 23
0.0
 14
10.0
 24
10.0
 15
10.0
 25
10.0
 16
0.0
 26
0.0
 36
1.0
 17
0.0
 27
0.0
 37
0.0
 40
297.0
 41
0.7070707071
 42
50.0
 43
0.0
 44
0.0
 50
0.0
 51
0.0
 71
     0
 72
  2000
 73
     1
 74
     3
 75
     0
 76
     0
 77
     0
 78
     0
281
     0
 65
     1
110
0.0
120
0.0
130
0.0
111
1.0
121
0.0
131
0.0
112
0.0
122
1.0
132
0.0
 79
     0
146
0.0
  0
ENDTAB
  0
TABLE
  2
LTYPE
  5
5
330
0
100
AcDbSymbolTable
 70
     8
  0
LTYPE
  5
14
330
5
100
AcDbSymbolTableRecord
100
AcDbLinetypeTableRecord
  2
ByBlock
 70
     0
  3

 72
    65
 73
     0
 40
0.0
  0
LTYPE
  5
15
330
5
100
AcDbSymbolTableRecord
100
AcDbLinetypeTableRecord
  2
ByLayer
 70
     0
  3

 72
    65
 73
     0
 40
0.0
  0
LTYPE
  5
16
330
5
100
AcDbSymbolTableRecord
100
AcDbLinetypeTableRecord
  2
Continuous
 70
     0
  3
Solid line
 72
    65
 73
     0
 40
0.0
  0
LTYPE
  5
6E
330
5
100
AcDbSymbolTableRecord
100
AcDbLinetypeTableRecord
  2
SLD-Durchgehend
 70
     0
  3
SolidWorks Line Style
 72
    65
 73
     0
 40
0.0
  0
LTYPE
  5
6F
330
5
100
AcDbSymbolTableRecord
100
AcDbLinetypeTableRecord
  2
SLD-Gestrichelt
 70
     0
  3
SolidWorks Line Style
 72
    65
 73
     2
 40
1.905
 49
1.27
 74
     0
 49
-0.635
 74
     0
  0
LTYPE
  5
70
330
5
100
AcDbSymbolTableRecord
100
AcDbLinetypeTableRecord
  2
SLD-Phantom
 70
     0
  3
SolidWorks Line Style
 72
    65
 73
     6
 40
12.7
 49
6.35
 74
     0
 49
-1.27
 74
     0
 49
1.27
 74
     0
 49
-1.27
 74
     0
 49
1.27
 74
     0
 49
-1.27
 74
     0
  0
LTYPE
  5
71
330
5
100
AcDbSymbolTableRecord
100
AcDbLinetypeTableRecord
  2
SLD-Kette
 70
     0
  3
SolidWorks Line Style
 72
    65
 73
     4
 40
10.16
 49
6.35
 74
     0
 49
-1.27
 74
     0
 49
1.27
 74
     0
 49
-1.27
 74
     0
  0
LTYPE
  5
72
330
5
100
AcDbSymbolTableRecord
100
AcDbLinetypeTableRecord
  2
SLD-Punktstrich
 70
     0
  3
SolidWorks Line Style
 72
    65
 73
     4
 40
19.05
 49
15.24
 74
     0
 49
-1.27
 74
     0
 49
1.27
 74
     0
 49
-1.27
 74
     0
  0
LTYPE
  5
73
330
5
100
AcDbSymbolTableRecord
100
AcDbLinetypeTableRecord
  2
SLD-Naht
 70
     0
  3
SolidWorks Line Style
 72
    65
 73
     2
 40
0.635
 49
0.0
 74
     0
 49
-0.635
 74
     0
  0
LTYPE
  5
74
330
5
100
AcDbSymbolTableRecord
100
AcDbLinetypeTableRecord
  2
SLD-Dicke-Dünne-Kette
 70
     0
  3
SolidWorks Line Style
 72
    65
 73
     4
 40
10.16
 49
6.35
 74
     0
 49
-1.27
 74
     0
 49
1.27
 74
     0
 49
-1.27
 74
     0
  0
ENDTAB
  0
TABLE
  2
LAYER
  5
2
330
0
100
AcDbSymbolTable
 70
     1
  0
LAYER
  5
10
330
2
100
AcDbSymbolTableRecord
100
AcDbLayerTableRecord
  2
0
 70
     0
 62
     7
  6
Continuous
370
    -3
390
F
  0
ENDTAB
  0
TABLE
  2
STYLE
  5
3
330
0
100
AcDbSymbolTable
 70
     5
  0
STYLE
  5
11
330
3
100
AcDbSymbolTableRecord
100
AcDbTextStyleTableRecord
  2
STANDARD
 70
     0
 40
0.0
 41
1.0
 50
0.0
 71
     0
 42
3.0
  3
ARIAL.TTF
  4

1001
ACAD
1000
ARIAL
1071
       34
  0
STYLE
  5
85
330
3
100
AcDbSymbolTableRecord
100
AcDbTextStyleTableRecord
  2
SLDTEXTSTYLE0
 70
     0
 40
0.0
 41
0.948
 50
0.0
 71
     0
 42
3.0
  3
ARIAL.TTF
  4

1001
ACAD
1000
Arial
1071
      290
  0
STYLE
  5
EF
330
3
100
AcDbSymbolTableRecord
100
AcDbTextStyleTableRecord
  2
SLDTEXTSTYLE1
 70
     0
 40
0.0
 41
1.0
 50
0.0
 71
     0
 42
3.0
  3
HLHI___.TTF
  4

1001
ACAD
1000
Helvetica 65 Medium
1071
 50331938
  0
STYLE
  5
F1
330
3
100
AcDbSymbolTableRecord
100
AcDbTextStyleTableRecord
  2
SLDTEXTSTYLE2
 70
     0
 40
0.0
 41
1.0
 50
0.0
 71
     0
 42
3.0
  3
HLR____.TTF
  4

1001
ACAD
1000
Helvetica 55 Roman
1071
 16777506
  0
STYLE
  5
FF
330
3
100
AcDbSymbolTableRecord
100
AcDbTextStyleTableRecord
  2
SLDTEXTSTYLE3
 70
     0
 40
0.0
 41
0.948
 50
0.0
 71
     0
 42
3.0
  3
ARIALBD.TTF
  4

1001
ACAD
1000
Arial
1071
 33554722
  0
ENDTAB
  0
TABLE
  2
VIEW
  5
6
330
0
100
AcDbSymbolTable
 70
     0
  0
ENDTAB
  0
TABLE
  2
UCS
  5
7
330
0
100
AcDbSymbolTable
 70
     0
  0
ENDTAB
  0
TABLE
  2
APPID
  5
9
330
0
100
AcDbSymbolTable
 70
     1
  0
APPID
  5
12
330
9
100
AcDbSymbolTableRecord
100
AcDbRegAppTableRecord
  2
ACAD
 70
     0
  0
ENDTAB
  0
TABLE
  2
DIMSTYLE
  5
A
330
0
100
AcDbSymbolTable
 70
     5
100
AcDbDimStyleTable
  0
DIMSTYLE
105
27
330
A
100
AcDbSymbolTableRecord
100
AcDbDimStyleTableRecord
  2
ISO-25
 70
     0
 41
2.5
 42
0.625
 43
3.75
 44
1.25
 73
     0
 74
     0
 77
     1
 78
     8
140
2.5
141
2.5
143
0.0393700787
147
0.625
171
     3
172
     1
178
     0
271
     2
272
     2
274
     3
278
    44
283
     0
284
     8
340
11
  0
DIMSTYLE
105
203
330
A
100
AcDbSymbolTableRecord
100
AcDbDimStyleTableRecord
  2
SLDDIMSTYLE0
 70
     0
 41
2.5
 44
0.0
 45
0.000000001
146
2.5
147
0.0
173
     1
178
     0
271
     0
272
     0
276
     2
340
11
  0
DIMSTYLE
105
20A
102
{ACAD_REACTORS
330
209
330
21F
330
229
330
233
330
248
330
253
330
27E
330
297
102
}
330
A
100
AcDbSymbolTableRecord
100
AcDbDimStyleTableRecord
  2
SLDDIMSTYLE1
 70
     0
 41
2.5
 44
0.0
 45
0.000000001
 73
     0
 74
     0
 77
     1
 78
    12
 79
     3
140
3.0
147
0.75
173
     1
178
     0
271
     3
272
     3
276
     2
284
    12
340
85
  0
DIMSTYLE
105
215
102
{ACAD_REACTORS
330
214
330
23E
102
}
330
A
100
AcDbSymbolTableRecord
100
AcDbDimStyleTableRecord
  2
SLDDIMSTYLE2
 70
     0
 41
2.5
 44
0.0
 45
0.000000001
 73
     0
 74
     0
 77
     1
 78
    12
 79
     3
140
3.0
147
0.75
173
     1
178
     0
271
     0
272
     3
276
     2
284
    12
340
85
  0
DIMSTYLE
105
28A
102
{ACAD_REACTORS
330
289
102
}
330
A
100
AcDbSymbolTableRecord
100
AcDbDimStyleTableRecord
  2
SLDDIMSTYLE3
 70
     0
 41
2.5
 44
0.0
 45
0.000000001
 73
     0
 74
     0
 77
     1
 78
    12
 79
     3
140
3.0
147
0.75
172
     1
173
     1
178
     0
271
     3
272
     3
276
     2
284
    12
289
     0
340
85
  0
ENDTAB
  0
TABLE
  2
BLOCK_RECORD
  5
1
330
0
100
AcDbSymbolTable
 70
    25
  0
BLOCK_RECORD
  5
1F
330
1
100
AcDbSymbolTableRecord
100
AcDbBlockTableRecord
  2
*Model_Space
340
22
  0
BLOCK_RECORD
  5
1B
330
1
100
AcDbSymbolTableRecord
100
AcDbBlockTableRecord
  2
*Paper_Space
340
1E
  0
BLOCK_RECORD
  5
23
330
1
100
AcDbSymbolTableRecord
100
AcDbBlockTableRecord
  2
*Paper_Space0
340
26
  0
BLOCK_RECORD
  5
75
330
1
100
AcDbSymbolTableRecord
100
AcDbBlockTableRecord
  2
Pfeil
340
0
102
{BLKREFS
331
201
331
207
102
}
  0
BLOCK_RECORD
  5
7F
330
1
100
AcDbSymbolTableRecord
100
AcDbBlockTableRecord
  2
Text Abluft
340
0
102
{BLKREFS
331
202
102
}
  0
BLOCK_RECORD
  5
82
330
1
100
AcDbSymbolTableRecord
100
AcDbBlockTableRecord
  2
SW_NOTE_0
340
0
102
{BLKREFS
331
8A
102
}
  0
BLOCK_RECORD
  5
8B
330
1
100
AcDbSymbolTableRecord
100
AcDbBlockTableRecord
  2
Text Zuluft
340
0
102
{BLKREFS
331
205
102
}
  0
BLOCK_RECORD
  5
8E
330
1
100
AcDbSymbolTableRecord
100
AcDbBlockTableRecord
  2
SW_NOTE_1
340
0
102
{BLKREFS
331
95
102
}
  0
BLOCK_RECORD
  5
96
330
1
100
AcDbSymbolTableRecord
100
AcDbBlockTableRecord
  2
Änderungsindex a
340
0
  0
BLOCK_RECORD
  5
99
330
1
100
AcDbSymbolTableRecord
100
AcDbBlockTableRecord
  2
SW_NOTE_2
340
0
102
{BLKREFS
331
9E
102
}
  0
BLOCK_RECORD
  5
EB
330
1
100
AcDbSymbolTableRecord
100
AcDbBlockTableRecord
  2
SW_NOTE_3
340
0
102
{BLKREFS
331
F4
102
}
  0
BLOCK_RECORD
  5
F6
330
1
100
AcDbSymbolTableRecord
100
AcDbBlockTableRecord
  2
SW_NOTE_4
340
0
102
{BLKREFS
331
FB
102
}
  0
BLOCK_RECORD
  5
20B
330
1
100
AcDbSymbolTableRecord
100
AcDbBlockTableRecord
  2
_D
340
0
  0
BLOCK_RECORD
  5
216
330
1
100
AcDbSymbolTableRecord
100
AcDbBlockTableRecord
  2
_D_1
340
0
  0
BLOCK_RECORD
  5
220
330
1
100
AcDbSymbolTableRecord
100
AcDbBlockTableRecord
  2
_D_2
340
0
  0
BLOCK_RECORD
  5
22A
330
1
100
AcDbSymbolTableRecord
100
AcDbBlockTableRecord
  2
_D_3
340
0
  0
BLOCK_RECORD
  5
234
330
1
100
AcDbSymbolTableRecord
100
AcDbBlockTableRecord
  2
_D_4
340
0
  0
BLOCK_RECORD
  5
23F
330
1
100
AcDbSymbolTableRecord
100
AcDbBlockTableRecord
  2
_D_5
340
0
  0
BLOCK_RECORD
  5
249
330
1
100
AcDbSymbolTableRecord
100
AcDbBlockTableRecord
  2
_D_6
340
0
  0
BLOCK_RECORD
  5
254
330
1
100
AcDbSymbolTableRecord
100
AcDbBlockTableRecord
  2
_D_7
340
0
  0
BLOCK_RECORD
  5
27F
330
1
100
AcDbSymbolTableRecord
100
AcDbBlockTableRecord
  2
_D_8
340
0
  0
BLOCK_RECORD
  5
28B
330
1
100
AcDbSymbolTableRecord
100
AcDbBlockTableRecord
  2
_D_9
340
0
  0
BLOCK_RECORD
  5
298
330
1
100
AcDbSymbolTableRecord
100
AcDbBlockTableRecord
  2
_D_10
340
0
  0
BLOCK_RECORD
  5
2A1
330
1
100
AcDbSymbolTableRecord
100
AcDbBlockTableRecord
  2
SW_CENTERMARKSYMBOL_0
340
0
102
{BLKREFS
331
2AC
102
}
  0
BLOCK_RECORD
  5
2AD
330
1
100
AcDbSymbolTableRecord
100
AcDbBlockTableRecord
  2
SW_CENTERMARKSYMBOL_1
340
0
102
{BLKREFS
331
2B8
102
}
  0
BLOCK_RECORD
  5
2B9
330
1
100
AcDbSymbolTableRecord
100
AcDbBlockTableRecord
  2
SW_CENTERMARKSYMBOL_2
340
0
102
{BLKREFS
331
2C4
102
}
  0
BLOCK_RECORD
  5
2C5
330
1
100
AcDbSymbolTableRecord
100
AcDbBlockTableRecord
  2
SW_CENTERMARKSYMBOL_3
340
0
102
{BLKREFS
331
2D0
102
}
  0
ENDTAB
  0
ENDSEC
  0
SECTION
  2
BLOCKS
  0
BLOCK
  5
20
330
1F
100
AcDbEntity
  8
0
100
AcDbBlockBegin
  2
*Model_Space
 70
     0
 10
0.0
 20
0.0
 30
0.0
  3
*Model_Space
  1

  0
ENDBLK
  5
21
330
1F
100
AcDbEntity
  8
0
100
AcDbBlockEnd
  0
BLOCK
  5
1C
330
1B
100
AcDbEntity
 67
     1
  8
0
100
AcDbBlockBegin
  2
*Paper_Space
 70
     0
 10
0.0
 20
0.0
 30
0.0
  3
*Paper_Space
  1

  0
ENDBLK
  5
1D
330
1B
100
AcDbEntity
 67
     1
  8
0
100
AcDbBlockEnd
  0
BLOCK
  5
24
330
23
100
AcDbEntity
  8
0
100
AcDbBlockBegin
  2
*Paper_Space0
 70
     0
 10
0.0
 20
0.0
 30
0.0
  3
*Paper_Space0
  1

  0
ENDBLK
  5
25
330
23
100
AcDbEntity
  8
0
100
AcDbBlockEnd
  0
BLOCK
  5
76
330
75
100
AcDbEntity
  8
0
100
AcDbBlockBegin
  2
Pfeil
 70
     0
 10
0.0
 20
0.0
 30
0.0
  3
Pfeil
  1

  0
LINE
  5
78
330
75
100
AcDbEntity
  8
0
  6
SLD-Durchgehend
 62
     7
370
     0
100
AcDbLine
 10
10.77
 20
0.8
 30
0.0
 11
2.77
 21
0.8
 31
0.0
  0
LINE
  5
79
330
75
100
AcDbEntity
  8
0
  6
SLD-Durchgehend
 62
     7
370
     0
100
AcDbLine
 10
2.77
 20
0.8
 30
0.0
 11
2.77
 21
1.6
 31
0.0
  0
LINE
  5
7A
330
75
100
AcDbEntity
  8
0
  6
SLD-Durchgehend
 62
     7
370
     0
100
AcDbLine
 10
2.77
 20
1.6
 30
0.0
 11
0.0
 21
0.0
 31
0.0
  0
LINE
  5
7B
330
75
100
AcDbEntity
  8
0
  6
SLD-Durchgehend
 62
     7
370
     0
100
AcDbLine
 10
0.0
 20
0.0
 30
0.0
 11
2.77
 21
-1.6
 31
0.0
  0
LINE
  5
7C
330
75
100
AcDbEntity
  8
0
  6
SLD-Durchgehend
 62
     7
370
     0
100
AcDbLine
 10
2.77
 20
-1.6
 30
0.0
 11
2.77
 21
-0.8
 31
0.0
  0
LINE
  5
7D
330
75
100
AcDbEntity
  8
0
  6
SLD-Durchgehend
 62
     7
370
     0
100
AcDbLine
 10
2.77
 20
-0.8
 30
0.0
 11
10.77
 21
-0.8
 31
0.0
  0
LINE
  5
7E
330
75
100
AcDbEntity
  8
0
  6
SLD-Durchgehend
 62
     7
370
     0
100
AcDbLine
 10
10.77
 20
-0.8
 30
0.0
 11
10.77
 21
0.8
 31
0.0
  0
ENDBLK
  5
77
330
75
100
AcDbEntity
  8
0
100
AcDbBlockEnd
  0
BLOCK
  5
80
330
7F
100
AcDbEntity
  8
0
100
AcDbBlockBegin
  2
Text Abluft
 70
     0
 10
0.0
 20
0.0
 30
0.0
  3
Text Abluft
  1

  0
INSERT
  5
8A
330
7F
100
AcDbEntity
  8
0
  6
SLD-Durchgehend
 62
     7
370
     0
100
AcDbBlockReference
  2
SW_NOTE_0
 10
0.0438152488
 20
7.8085249423
 30
0.0
  0
ENDBLK
  5
81
330
7F
100
AcDbEntity
  8
0
100
AcDbBlockEnd
  0
BLOCK
  5
83
330
82
100
AcDbEntity
  8
0
100
AcDbBlockBegin
  2
SW_NOTE_0
 70
     0
 10
0.0
 20
0.0
 30
0.0
  3
SW_NOTE_0
  1

  0
MTEXT
  5
86
330
82
100
AcDbEntity
  8
0
  6
SLD-Durchgehend
 62
     0
370
     0
100
AcDbMText
 10
0.0
 20
3.8672032193
 30
0.0
 40
3.0
 41
0.0
 71
     1
 72
     1
  1
G 3/8
  7
SLDTEXTSTYLE0
 73
     1
 44
1.0
  0
MTEXT
  5
87
330
82
100
AcDbEntity
  8
0
  6
SLD-Durchgehend
 62
     0
370
     0
100
AcDbMText
 10
0.0
 20
-0.1327969707
 30
0.0
 40
3.0
 41
0.0
 71
     1
 72
     1
  1
Abluft
  7
SLDTEXTSTYLE0
 73
     1
 44
1.0
  0
MTEXT
  5
88
330
82
100
AcDbEntity
  8
0
  6
SLD-Durchgehend
 62
     0
370
     0
100
AcDbMText
 10
0.0
 20
-4.1327971607
 30
0.0
 40
3.0
 41
0.0
 71
     1
 72
     1
  1
Exhaust
  7
SLDTEXTSTYLE0
 73
     1
 44
1.0
  0
MTEXT
  5
89
330
82
100
AcDbEntity
  8
0
  6
SLD-Durchgehend
 62
     0
370
     0
100
AcDbMText
 10
0.0
 20
-8.1327973507
 30
0.0
 40
3.0
 41
0.0
 71
     1
 72
     1
  1
Echappement
  7
SLDTEXTSTYLE0
 73
     1
 44
1.0
  0
ENDBLK
  5
84
330
82
100
AcDbEntity
  8
0
100
AcDbBlockEnd
  0
BLOCK
  5
8C
330
8B
100
AcDbEntity
  8
0
100
AcDbBlockBegin
  2
Text Zuluft
 70
     0
 10
0.0
 20
0.0
 30
0.0
  3
Text Zuluft
  1

  0
INSERT
  5
95
330
8B
100
AcDbEntity
  8
0
  6
SLD-Durchgehend
 62
     7
370
     0
100
AcDbBlockReference
  2
SW_NOTE_1
 10
0.0
 20
7.9354514905
 30
0.0
  0
ENDBLK
  5
8D
330
8B
100
AcDbEntity
  8
0
100
AcDbBlockEnd
  0
BLOCK
  5
8F
330
8E
100
AcDbEntity
  8
0
100
AcDbBlockBegin
  2
SW_NOTE_1
 70
     0
 10
0.0
 20
0.0
 30
0.0
  3
SW_NOTE_1
  1

  0
MTEXT
  5
91
330
8E
100
AcDbEntity
  8
0
  6
SLD-Durchgehend
 62
     0
370
     0
100
AcDbMText
 10
0.0
 20
3.8672032193
 30
0.0
 40
3.0
 41
0.0
 71
     1
 72
     1
  1
G1/8
  7
SLDTEXTSTYLE0
 73
     1
 44
1.0
  0
MTEXT
  5
92
330
8E
100
AcDbEntity
  8
0
  6
SLD-Durchgehend
 62
     0
370
     0
100
AcDbMText
 10
0.0
 20
-0.1327969707
 30
0.0
 40
3.0
 41
0.0
 71
     1
 72
     1
  1
Zuluft
  7
SLDTEXTSTYLE0
 73
     1
 44
1.0
  0
MTEXT
  5
93
330
8E
100
AcDbEntity
  8
0
  6
SLD-Durchgehend
 62
     0
370
     0
100
AcDbMText
 10
0.0
 20
-4.1327971607
 30
0.0
 40
3.0
 41
0.0
 71
     1
 72
     1
  1
Air supply
  7
SLDTEXTSTYLE0
 73
     1
 44
1.0
  0
MTEXT
  5
94
330
8E
100
AcDbEntity
  8
0
  6
SLD-Durchgehend
 62
     0
370
     0
100
AcDbMText
 10
0.0
 20
-8.1327973507
 30
0.0
 40
3.0
 41
0.0
 71
     1
 72
     1
  1
Arrivée d´air
  7
SLDTEXTSTYLE0
 73
     1
 44
1.0
  0
ENDBLK
  5
90
330
8E
100
AcDbEntity
  8
0
100
AcDbBlockEnd
  0
BLOCK
  5
97
330
96
100
AcDbEntity
  8
0
100
AcDbBlockBegin
  2
Änderungsindex a
 70
     0
 10
0.0
 20
0.0
 30
0.0
  3
Änderungsindex a
  1

  0
INSERT
  5
9E
330
96
100
AcDbEntity
  8
0
  6
Continuous
 62
     7
370
     0
100
AcDbBlockReference
  2
SW_NOTE_2
 10
-2.6785442717
 20
-4.2179726306
 30
0.0
  0
ENDBLK
  5
98
330
96
100
AcDbEntity
  8
0
100
AcDbBlockEnd
  0
BLOCK
  5
9A
330
99
100
AcDbEntity
  8
0
100
AcDbBlockBegin
  2
SW_NOTE_2
 70
     0
 10
0.0
 20
0.0
 30
0.0
  3
SW_NOTE_2
  1

  0
CIRCLE
  5
9C
330
99
100
AcDbEntity
  8
0
  6
SLD-Durchgehend
 62
     0
370
     0
100
AcDbCircle
 10
2.2902559806
 20
4.4406505799
 30
0.0
 40
4.607707781128337
  0
MTEXT
  5
9D
330
99
100
AcDbEntity
  8
0
  6
Continuous
 62
     0
370
     0
100
AcDbMText
 10
0.0
 20
7.7344064386
 30
0.0
 40
6.0
 41
0.0
 71
     1
 72
     1
  1
a
  7
SLDTEXTSTYLE0
 73
     1
 44
1.0
  0
ENDBLK
  5
9B
330
99
100
AcDbEntity
  8
0
100
AcDbBlockEnd
  0
BLOCK
  5
EC
330
EB
100
AcDbEntity
  8
0
100
AcDbBlockBegin
  2
SW_NOTE_3
 70
     0
 10
0.0
 20
0.0
 30
0.0
  3
SW_NOTE_3
  1

  0
MTEXT
  5
EE
330
EB
100
AcDbEntity
  8
0
  6
Continuous
 62
     0
370
     0
100
AcDbMText
 10
0.0
 20
2.3874608764
 30
0.0
 40
1.8520833333
 41
0.0
 71
     1
 72
     1
  1
Tel.: +49 6134 2901-0, www.
  7
SLDTEXTSTYLE0
 73
     1
 44
1.0
  0
MTEXT
  5
F0
330
EB
100
AcDbEntity
  8
0
  6
Continuous
 62
     0
370
     0
100
AcDbMText
 10
31.6226072609
 20
2.2325681125
 30
0.0
 40
1.8520833333
 41
0.0
 71
     1
 72
     1
  1
Netter
  7
SLDTEXTSTYLE1
 73
     1
 44
1.0
  0
MTEXT
  5
F2
330
EB
100
AcDbEntity
  8
0
  6
Continuous
 62
     0
370
     0
100
AcDbMText
 10
39.4425168633
 20
2.3157006648
 30
0.0
 40
1.8520833333
 41
0.0
 71
     1
 72
     1
  1
Vibration
  7
SLDTEXTSTYLE2
 73
     1
 44
1.0
  0
MTEXT
  5
F3
330
EB
100
AcDbEntity
  8
0
  6
Continuous
 62
     0
370
     0
100
AcDbMText
 10
49.1865314543
 20
2.3874608764
 30
0.0
 40
1.8520833333
 41
0.0
 71
     1
 72
     1
  1
.com
  7
SLDTEXTSTYLE0
 73
     1
 44
1.0
  0
ENDBLK
  5
ED
330
EB
100
AcDbEntity
  8
0
100
AcDbBlockEnd
  0
BLOCK
  5
F7
330
F6
100
AcDbEntity
  8
0
100
AcDbBlockBegin
  2
SW_NOTE_4
 70
     0
 10
0.0
 20
0.0
 30
0.0
  3
SW_NOTE_4
  1

  0
MTEXT
  5
F9
330
F6
100
AcDbEntity
  8
0
  6
Continuous
 62
     0
370
     0
100
AcDbMText
 10
0.0
 20
4.8649193548
 30
0.0
 40
3.96875
 41
0.0
 71
     1
 72
     1
  1
Netter
  7
SLDTEXTSTYLE1
 73
     1
 44
1.0
  0
MTEXT
  5
FA
330
F6
100
AcDbEntity
  8
0
  6
Continuous
 62
     0
370
     0
100
AcDbMText
 10
16.7569443583
 20
5.0430605384
 30
0.0
 40
3.96875
 41
0.0
 71
     1
 72
     1
  1
Vibration
  7
SLDTEXTSTYLE2
 73
     1
 44
1.0
  0
ENDBLK
  5
F8
330
F6
100
AcDbEntity
  8
0
100
AcDbBlockEnd
  0
BLOCK
  5
20C
330
20B
100
AcDbEntity
  8
0
100
AcDbBlockBegin
  2
_D
 70
     0
 10
0.0
 20
0.0
 30
0.0
  3
_D
  1

  0
SOLID
  5
20E
330
20B
100
AcDbEntity
  8
0
  6
SLD-Durchgehend
 62
     7
370
     0
100
AcDbTrace
 10
57.7508563571
 20
87.4297909003
 30
0.0
 11
57.4408563571
 21
84.9297909003
 31
0.0
 12
58.0608563571
 22
84.9297909003
 32
0.0
 13
58.0608563571
 23
84.9297909003
 33
0.0
  0
SOLID
  5
20F
330
20B
100
AcDbEntity
  8
0
  6
SLD-Durchgehend
 62
     7
370
     0
100
AcDbTrace
 10
57.7508563571
 20
74.7297909003
 30
0.0
 11
58.0608563571
 21
77.2297909003
 31
0.0
 12
57.4408563571
 22
77.2297909003
 32
0.0
 13
57.4408563571
 23
77.2297909003
 33
0.0
  0
LINE
  5
210
330
20B
100
AcDbEntity
  8
0
  6
SLD-Durchgehend
 62
     7
370
     0
100
AcDbLine
 10
76.7212662849
 20
87.4297909003
 30
0.0
 11
56.7508563571
 21
87.4297909003
 31
0.0
  0
LINE
  5
211
330
20B
100
AcDbEntity
  8
0
  6
SLD-Durchgehend
 62
     7
370
     0
100
AcDbLine
 10
86.5090799113
 20
74.7297909003
 30
0.0
 11
56.7508563571
 21
74.7297909003
 31
0.0
  0
LINE
  5
212
330
20B
100
AcDbEntity
  8
0
  6
SLD-Durchgehend
 62
     7
370
     0
100
AcDbLine
 10
57.7508563571
 20
87.4297909003
 30
0.0
 11
57.7508563571
 21
74.7297909003
 31
0.0
  0
MTEXT
  5
213
330
20B
100
AcDbEntity
  8
0
  6
SLD-Durchgehend
 62
     7
370
     0
100
AcDbMText
 10
53.883652905
 20
78.7885674826
 30
0.0
 40
3.0
 41
0.0
 71
     1
 72
     1
  1
12
  7
SLDTEXTSTYLE0
 11
-7.044195017643634E-15
 21
1.0
 31
0.0
 73
     1
 44
1.0
  0
ENDBLK
  5
20D
330
20B
100
AcDbEntity
  8
0
100
AcDbBlockEnd
  0
BLOCK
  5
217
330
216
100
AcDbEntity
  8
0
100
AcDbBlockBegin
  2
_D_1
 70
     0
 10
0.0
 20
0.0
 30
0.0
  3
_D_1
  1

  0
SOLID
  5
219
330
216
100
AcDbEntity
  8
0
  6
SLD-Durchgehend
 62
     7
370
     0
100
AcDbTrace
 10
47.5960070755
 20
172.6297909003
 30
0.0
 11
47.2860070755
 21
170.1297909003
 31
0.0
 12
47.9060070755
 22
170.1297909003
 32
0.0
 13
47.9060070755
 23
170.1297909003
 33
0.0
  0
SOLID
  5
21A
330
216
100
AcDbEntity
  8
0
  6
SLD-Durchgehend
 62
     7
370
     0
100
AcDbTrace
 10
47.5960070755
 20
74.7297909003
 30
0.0
 11
47.9060070755
 21
77.2297909003
 31
0.0
 12
47.2860070755
 22
77.2297909003
 32
0.0
 13
47.2860070755
 23
77.2297909003
 33
0.0
  0
LINE
  5
21B
330
216
100
AcDbEntity
  8
0
  6
SLD-Durchgehend
 62
     7
370
     0
100
AcDbLine
 10
65.599004447
 20
172.6297909003
 30
0.0
 11
46.5960070755
 21
172.6297909003
 31
0.0
  0
LINE
  5
21C
330
216
100
AcDbEntity
  8
0
  6
SLD-Durchgehend
 62
     7
370
     0
100
AcDbLine
 10
96.2941776959
 20
74.7297909003
 30
0.0
 11
46.5960070755
 21
74.7297909003
 31
0.0
  0
LINE
  5
21D
330
216
100
AcDbEntity
  8
0
  6
SLD-Durchgehend
 62
     7
370
     0
100
AcDbLine
 10
47.5960070755
 20
172.6297909003
 30
0.0
 11
47.5960070755
 21
74.7297909003
 31
0.0
  0
MTEXT
  5
21E
330
216
100
AcDbEntity
  8
0
  6
SLD-Durchgehend
 62
     7
370
     0
100
AcDbMText
 10
43.7288036234
 20
121.3885674826
 30
0.0
 40
3.0
 41
0.0
 71
     1
 72
     1
  1
98
  7
SLDTEXTSTYLE0
 11
-7.044195017643634E-15
 21
1.0
 31
0.0
 73
     1
 44
1.0
  0
ENDBLK
  5
218
330
216
100
AcDbEntity
  8
0
100
AcDbBlockEnd
  0
BLOCK
  5
221
330
220
100
AcDbEntity
  8
0
100
AcDbBlockBegin
  2
_D_2
 70
     0
 10
0.0
 20
0.0
 30
0.0
  3
_D_2
  1

  0
SOLID
  5
223
330
220
100
AcDbEntity
  8
0
  6
SLD-Durchgehend
 62
     7
370
     0
100
AcDbTrace
 10
135.7212662849
 20
74.7297909003
 30
0.0
 11
136.0312662849
 21
77.2297909003
 31
0.0
 12
135.4112662849
 22
77.2297909003
 32
0.0
 13
135.4112662849
 23
77.2297909003
 33
0.0
  0
SOLID
  5
224
330
220
100
AcDbEntity
  8
0
  6
SLD-Durchgehend
 62
     7
370
     0
100
AcDbTrace
 10
135.7212662849
 20
123.7297909003
 30
0.0
 11
135.4112662849
 21
121.2297909003
 31
0.0
 12
136.0312662849
 22
121.2297909003
 32
0.0
 13
136.0312662849
 23
121.2297909003
 33
0.0
  0
LINE
  5
225
330
220
100
AcDbEntity
  8
0
  6
SLD-Durchgehend
 62
     7
370
     0
100
AcDbLine
 10
98.2941776959
 20
74.7297909003
 30
0.0
 11
136.7212662849
 21
74.7297909003
 31
0.0
  0
LINE
  5
226
330
220
100
AcDbEntity
  8
0
  6
SLD-Durchgehend
 62
     7
370
     0
100
AcDbLine
 10
123.0650469617
 20
123.7297909003
 30
0.0
 11
136.7212662849
 21
123.7297909003
 31
0.0
  0
LINE
  5
227
330
220
100
AcDbEntity
  8
0
  6
SLD-Durchgehend
 62
     7
370
     0
100
AcDbLine
 10
135.7212662849
 20
74.7297909003
 30
0.0
 11
135.7212662849
 21
123.7297909003
 31
0.0
  0
MTEXT
  5
228
330
220
100
AcDbEntity
  8
0
  6
SLD-Durchgehend
 62
     7
370
     0
100
AcDbMText
 10
131.8540628327
 20
96.9385674826
 30
0.0
 40
3.0
 41
0.0
 71
     1
 72
     1
  1
49
  7
SLDTEXTSTYLE0
 11
6.123233995736766E-17
 21
1.0
 31
0.0
 73
     1
 44
1.0
  0
ENDBLK
  5
222
330
220
100
AcDbEntity
  8
0
100
AcDbBlockEnd
  0
BLOCK
  5
22B
330
22A
100
AcDbEntity
  8
0
100
AcDbBlockBegin
  2
_D_3
 70
     0
 10
0.0
 20
0.0
 30
0.0
  3
_D_3
  1

  0
SOLID
  5
22D
330
22A
100
AcDbEntity
  8
0
  6
SLD-Durchgehend
 62
     7
370
     0
100
AcDbTrace
 10
83.7212662849
 20
60.1696969047
 30
0.0
 11
86.2212662849
 21
59.8596969047
 31
0.0
 12
86.2212662849
 22
60.4796969047
 32
0.0
 13
86.2212662849
 23
60.4796969047
 33
0.0
  0
SOLID
  5
22E
330
22A
100
AcDbEntity
  8
0
  6
SLD-Durchgehend
 62
     7
370
     0
100
AcDbTrace
 10
107.7212662849
 20
60.1696969047
 30
0.0
 11
105.2212662849
 21
60.4796969047
 31
0.0
 12
105.2212662849
 22
59.8596969047
 32
0.0
 13
105.2212662849
 23
59.8596969047
 33
0.0
  0
LINE
  5
22F
330
22A
100
AcDbEntity
  8
0
  6
SLD-Durchgehend
 62
     7
370
     0
100
AcDbLine
 10
83.7212662849
 20
65.5942529789
 30
0.0
 11
83.7212662849
 21
59.1696969047
 31
0.0
  0
LINE
  5
230
330
22A
100
AcDbEntity
  8
0
  6
SLD-Durchgehend
 62
     7
370
     0
100
AcDbLine
 10
107.7212662849
 20
73.7297909003
 30
0.0
 11
107.7212662849
 21
59.1696969047
 31
0.0
  0
LINE
  5
231
330
22A
100
AcDbEntity
  8
0
  6
SLD-Durchgehend
 62
     7
370
     0
100
AcDbLine
 10
83.7212662849
 20
60.1696969047
 30
0.0
 11
107.7212662849
 21
60.1696969047
 31
0.0
  0
MTEXT
  5
232
330
22A
100
AcDbEntity
  8
0
  6
SLD-Durchgehend
 62
     7
370
     0
100
AcDbMText
 10
93.4300428672
 20
64.0369003569
 30
0.0
 40
3.0
 41
0.0
 71
     1
 72
     1
  1
24
  7
SLDTEXTSTYLE0
 73
     1
 44
1.0
  0
ENDBLK
  5
22C
330
22A
100
AcDbEntity
  8
0
100
AcDbBlockEnd
  0
BLOCK
  5
235
330
234
100
AcDbEntity
  8
0
100
AcDbBlockBegin
  2
_D_4
 70
     0
 10
0.0
 20
0.0
 30
0.0
  3
_D_4
  1

  0
SOLID
  5
237
330
234
100
AcDbEntity
  8
0
  6
SLD-Durchgehend
 62
     7
370
     0
100
AcDbTrace
 10
77.7212662849
 20
67.1468825316
 30
0.0
 11
80.2212662849
 21
66.8368825316
 31
0.0
 12
80.2212662849
 22
67.4568825316
 32
0.0
 13
80.2212662849
 23
67.4568825316
 33
0.0
  0
SOLID
  5
238
330
234
100
AcDbEntity
  8
0
  6
SLD-Durchgehend
 62
     7
370
     0
100
AcDbTrace
 10
89.7212662849
 20
67.1468825316
 30
0.0
 11
87.2212662849
 21
67.4568825316
 31
0.0
 12
87.2212662849
 22
66.8368825316
 32
0.0
 13
87.2212662849
 23
66.8368825316
 33
0.0
  0
LINE
  5
239
330
234
100
AcDbEntity
  8
0
  6
SLD-Durchgehend
 62
     7
370
     0
100
AcDbLine
 10
77.7212662849
 20
74.4297909003
 30
0.0
 11
77.7212662849
 21
66.1468825316
 31
0.0
  0
LINE
  5
23A
330
234
100
AcDbEntity
  8
0
  6
SLD-Durchgehend
 62
     7
370
     0
100
AcDbLine
 10
89.7212662849
 20
74.4297909003
 30
0.0
 11
89.7212662849
 21
66.1468825316
 31
0.0
  0
LINE
  5
23B
330
234
100
AcDbEntity
  8
0
  6
SLD-Durchgehend
 62
     7
370
     0
100
AcDbLine
 10
77.7212662849
 20
67.1468825316
 30
0.0
 11
89.7212662849
 21
67.1468825316
 31
0.0
  0
MTEXT
  5
23C
330
234
100
AcDbEntity
  8
0
  6
SLD-Durchgehend
 62
     7
370
     0
100
AcDbMText
 10
79.7140219811
 20
71.0140859837
 30
0.0
 40
3.0
 41
0.0
 71
     1
 72
     1
  1
M
  7
SLDTEXTSTYLE0
 73
     1
 44
1.0
  0
MTEXT
  5
23D
330
234
100
AcDbEntity
  8
0
  6
SLD-Durchgehend
 62
     7
370
     0
100
AcDbMText
 10
83.1460637532
 20
71.0140859837
 30
0.0
 40
3.0
 41
0.0
 71
     1
 72
     1
  1
12
  7
SLDTEXTSTYLE0
 73
     1
 44
1.0
  0
ENDBLK
  5
236
330
234
100
AcDbEntity
  8
0
100
AcDbBlockEnd
  0
BLOCK
  5
240
330
23F
100
AcDbEntity
  8
0
100
AcDbBlockBegin
  2
_D_5
 70
     0
 10
0.0
 20
0.0
 30
0.0
  3
_D_5
  1

  0
SOLID
  5
242
330
23F
100
AcDbEntity
  8
0
  6
SLD-Durchgehend
 62
     7
370
     0
100
AcDbTrace
 10
35.927895156
 20
74.7297909003
 30
0.0
 11
36.237895156
 21
77.2297909003
 31
0.0
 12
35.617895156
 22
77.2297909003
 32
0.0
 13
35.617895156
 23
77.2297909003
 33
0.0
  0
SOLID
  5
243
330
23F
100
AcDbEntity
  8
0
  6
SLD-Durchgehend
 62
     7
370
     0
100
AcDbTrace
 10
35.927895156
 20
220.6297909003
 30
0.0
 11
35.617895156
 21
218.1297909003
 31
0.0
 12
36.237895156
 22
218.1297909003
 32
0.0
 13
36.237895156
 23
218.1297909003
 33
0.0
  0
LINE
  5
244
330
23F
100
AcDbEntity
  8
0
  6
SLD-Durchgehend
 62
     7
370
     0
100
AcDbLine
 10
75.6483548739
 20
74.7297909003
 30
0.0
 11
34.927895156
 21
74.7297909003
 31
0.0
  0
LINE
  5
245
330
23F
100
AcDbEntity
  8
0
  6
SLD-Durchgehend
 62
     7
370
     0
100
AcDbLine
 10
78.4712662849
 20
220.6297909003
 30
0.0
 11
34.927895156
 21
220.6297909003
 31
0.0
  0
LINE
  5
246
330
23F
100
AcDbEntity
  8
0
  6
SLD-Durchgehend
 62
     7
370
     0
100
AcDbLine
 10
35.927895156
 20
74.7297909003
 30
0.0
 11
35.927895156
 21
220.6297909003
 31
0.0
  0
MTEXT
  5
247
330
23F
100
AcDbEntity
  8
0
  6
SLD-Durchgehend
 62
     7
370
     0
100
AcDbMText
 10
32.0606917038
 20
144.2429557737
 30
0.0
 40
3.0
 41
0.0
 71
     1
 72
     1
  1
146
  7
SLDTEXTSTYLE0
 11
6.123233995736766E-17
 21
1.0
 31
0.0
 73
     1
 44
1.0
  0
ENDBLK
  5
241
330
23F
100
AcDbEntity
  8
0
100
AcDbBlockEnd
  0
BLOCK
  5
24A
330
249
100
AcDbEntity
  8
0
100
AcDbBlockBegin
  2
_D_6
 70
     0
 10
0.0
 20
0.0
 30
0.0
  3
_D_6
  1

  0
SOLID
  5
24C
330
249
100
AcDbEntity
  8
0
  6
SLD-Durchgehend
 62
     7
370
     0
100
AcDbTrace
 10
107.7212662849
 20
49.6224741208
 30
0.0
 11
105.2212662849
 21
49.9324741208
 31
0.0
 12
105.2212662849
 22
49.3124741208
 32
0.0
 13
105.2212662849
 23
49.3124741208
 33
0.0
  0
SOLID
  5
24D
330
249
100
AcDbEntity
  8
0
  6
SLD-Durchgehend
 62
     7
370
     0
100
AcDbTrace
 10
66.2212662849
 20
49.6224741208
 30
0.0
 11
68.7212662849
 21
49.3124741208
 31
0.0
 12
68.7212662849
 22
49.9324741208
 32
0.0
 13
68.7212662849
 23
49.9324741208
 33
0.0
  0
LINE
  5
24E
330
249
100
AcDbEntity
  8
0
  6
SLD-Durchgehend
 62
     7
370
     0
100
AcDbLine
 10
107.7212662849
 20
73.7297909003
 30
0.0
 11
107.7212662849
 21
48.6224741208
 31
0.0
  0
LINE
  5
24F
330
249
100
AcDbEntity
  8
0
  6
SLD-Durchgehend
 62
     7
370
     0
100
AcDbLine
 10
66.2212662849
 20
73.7297909003
 30
0.0
 11
66.2212662849
 21
48.6224741208
 31
0.0
  0
LINE
  5
250
330
249
100
AcDbEntity
  8
0
  6
SLD-Durchgehend
 62
     7
370
     0
100
AcDbLine
 10
107.7212662849
 20
49.6224741208
 30
0.0
 11
66.2212662849
 21
49.6224741208
 31
0.0
  0
MTEXT
  5
251
330
249
100
AcDbEntity
  8
0
  6
SLD-Durchgehend
 62
     7
370
     0
100
AcDbMText
 10
77.5238710161
 20
53.4896772237
 30
0.0
 40
3.0
 41
0.0
 71
     1
 72
     1
  1
%%c
  7
SLDTEXTSTYLE0
 73
     1
 44
1.0
  0
MTEXT
  5
252
330
249
100
AcDbEntity
  8
0
  6
SLD-Durchgehend
 62
     7
370
     0
100
AcDbMText
 10
81.8978293504
 20
53.4980105817
 30
0.0
 40
3.0
 41
0.0
 71
     1
 72
     1
  1
41,5
  7
SLDTEXTSTYLE0
 73
     1
 44
1.0
  0
ENDBLK
  5
24B
330
249
100
AcDbEntity
  8
0
100
AcDbBlockEnd
  0
BLOCK
  5
255
330
254
100
AcDbEntity
  8
0
100
AcDbBlockBegin
  2
_D_7
 70
     0
 10
0.0
 20
0.0
 30
0.0
  3
_D_7
  1

  0
SOLID
  5
257
330
254
100
AcDbEntity
  8
0
  6
SLD-Durchgehend
 62
     7
370
     0
100
AcDbTrace
 10
116.0402059901
 20
89.7297909003
 30
0.0
 11
115.7302059901
 21
87.2297909003
 31
0.0
 12
116.3502059901
 22
87.2297909003
 32
0.0
 13
116.3502059901
 23
87.2297909003
 33
0.0
  0
SOLID
  5
258
330
254
100
AcDbEntity
  8
0
  6
SLD-Durchgehend
 62
     7
370
     0
100
AcDbTrace
 10
116.0402059901
 20
74.7297909003
 30
0.0
 11
116.3502059901
 21
77.2297909003
 31
0.0
 12
115.7302059901
 22
77.2297909003
 32
0.0
 13
115.7302059901
 23
77.2297909003
 33
0.0
  0
LINE
  5
259
330
254
100
AcDbEntity
  8
0
  6
SLD-Durchgehend
 62
     7
370
     0
100
AcDbLine
 10
98.2941776959
 20
89.7297909003
 30
0.0
 11
117.0402059901
 21
89.7297909003
 31
0.0
  0
LINE
  5
25A
330
254
100
AcDbEntity
  8
0
  6
SLD-Durchgehend
 62
     7
370
     0
100
AcDbLine
 10
98.2941776959
 20
74.7297909003
 30
0.0
 11
117.0402059901
 21
74.7297909003
 31
0.0
  0
LINE
  5
25B
330
254
100
AcDbEntity
  8
0
  6
SLD-Durchgehend
 62
     7
370
     0
100
AcDbLine
 10
116.0402059901
 20
89.7297909003
 30
0.0
 11
116.0402059901
 21
74.7297909003
 31
0.0
  0
MTEXT
  5
25C
330
254
100
AcDbEntity
  8
0
  6
SLD-Durchgehend
 62
     7
370
     0
100
AcDbMText
 10
112.1730025379
 20
80.3781523517
 30
0.0
 40
3.0
 41
0.0
 71
     1
 72
     1
  1
15
  7
SLDTEXTSTYLE0
 11
-7.044195017643634E-15
 21
1.0
 31
0.0
 73
     1
 44
1.0
  0
ENDBLK
  5
256
330
254
100
AcDbEntity
  8
0
100
AcDbBlockEnd
  0
BLOCK
  5
280
330
27F
100
AcDbEntity
  8
0
100
AcDbBlockBegin
  2
_D_8
 70
     0
 10
0.0
 20
0.0
 30
0.0
  3
_D_8
  1

  0
SOLID
  5
282
330
27F
100
AcDbEntity
  8
0
  6
SLD-Durchgehend
 62
     7
370
     0
100
AcDbTrace
 10
50.2212662849
 20
241.6001498499
 30
0.0
 11
50.5312662849
 21
244.1001498499
 31
0.0
 12
49.9112662849
 22
244.1001498499
 32
0.0
 13
49.9112662849
 23
244.1001498499
 33
0.0
  0
SOLID
  5
283
330
27F
100
AcDbEntity
  8
0
  6
SLD-Durchgehend
 62
     7
370
     0
100
AcDbTrace
 10
50.2212662849
 20
277.6001498499
 30
0.0
 11
49.9112662849
 21
275.1001498499
 31
0.0
 12
50.5312662849
 22
275.1001498499
 32
0.0
 13
50.5312662849
 23
275.1001498499
 33
0.0
  0
LINE
  5
284
330
27F
100
AcDbEntity
  8
0
  6
SLD-Durchgehend
 62
     7
370
     0
100
AcDbLine
 10
75.6483548739
 20
241.6001498499
 30
0.0
 11
49.2212662849
 21
241.6001498499
 31
0.0
  0
LINE
  5
285
330
27F
100
AcDbEntity
  8
0
  6
SLD-Durchgehend
 62
     7
370
     0
100
AcDbLine
 10
75.6483548739
 20
277.6001498499
 30
0.0
 11
49.2212662849
 21
277.6001498499
 31
0.0
  0
LINE
  5
286
330
27F
100
AcDbEntity
  8
0
  6
SLD-Durchgehend
 62
     7
370
     0
100
AcDbLine
 10
50.2212662849
 20
241.6001498499
 30
0.0
 11
50.2212662849
 21
277.6001498499
 31
0.0
  0
MTEXT
  5
287
330
27F
100
AcDbEntity
  8
0
  6
SLD-Durchgehend
 62
     7
370
     0
100
AcDbMText
 10
46.3540628327
 20
253.9903273815
 30
0.0
 40
3.0
 41
0.0
 71
     1
 72
     1
  1
SW
  7
SLDTEXTSTYLE0
 11
3.391901413832837E-15
 21
1.0
 31
0.0
 73
     1
 44
1.0
  0
MTEXT
  5
288
330
27F
100
AcDbEntity
  8
0
  6
SLD-Durchgehend
 62
     7
370
     0
100
AcDbMText
 10
46.3540628327
 20
260.6275254828
 30
0.0
 40
3.0
 41
0.0
 71
     1
 72
     1
  1
36
  7
SLDTEXTSTYLE0
 11
3.391901413832837E-15
 21
1.0
 31
0.0
 73
     1
 44
1.0
  0
ENDBLK
  5
281
330
27F
100
AcDbEntity
  8
0
100
AcDbBlockEnd
  0
BLOCK
  5
28C
330
28B
100
AcDbEntity
  8
0
100
AcDbBlockBegin
  2
_D_9
 70
     0
 10
0.0
 20
0.0
 30
0.0
  3
_D_9
  1

  0
SOLID
  5
28E
330
28B
100
AcDbEntity
  8
0
  6
SLD-Durchgehend
 62
     7
370
     0
100
AcDbTrace
 10
61.425689297
 20
262.1001498499
 30
0.0
 11
61.735689297
 21
264.6001498499
 31
0.0
 12
61.115689297
 22
264.6001498499
 32
0.0
 13
61.115689297
 23
264.6001498499
 33
0.0
  0
SOLID
  5
28F
330
28B
100
AcDbEntity
  8
0
  6
SLD-Durchgehend
 62
     7
370
     0
100
AcDbTrace
 10
61.425689297
 20
257.1001498499
 30
0.0
 11
61.115689297
 21
254.6001498499
 31
0.0
 12
61.735689297
 22
254.6001498499
 32
0.0
 13
61.735689297
 23
254.6001498499
 33
0.0
  0
LINE
  5
290
330
28B
100
AcDbEntity
  8
0
  6
SLD-Durchgehend
 62
     7
370
     0
100
AcDbLine
 10
71.9212662849
 20
262.1001498499
 30
0.0
 11
60.425689297
 21
262.1001498499
 31
0.0
  0
LINE
  5
291
330
28B
100
AcDbEntity
  8
0
  6
SLD-Durchgehend
 62
     7
370
     0
100
AcDbLine
 10
71.9212662849
 20
257.1001498499
 30
0.0
 11
60.425689297
 21
257.1001498499
 31
0.0
  0
LINE
  5
292
330
28B
100
AcDbEntity
  8
0
  6
SLD-Durchgehend
 62
     7
370
     0
100
AcDbLine
 10
61.425689297
 20
262.1001498499
 30
0.0
 11
61.425689297
 21
264.6001498499
 31
0.0
  0
LINE
  5
293
330
28B
100
AcDbEntity
  8
0
  6
SLD-Durchgehend
 62
     7
370
     0
100
AcDbLine
 10
61.425689297
 20
262.1001498499
 30
0.0
 11
61.425689297
 21
257.1001498499
 31
0.0
  0
LINE
  5
294
330
28B
100
AcDbEntity
  8
0
  6
SLD-Durchgehend
 62
     7
370
     0
100
AcDbLine
 10
61.425689297
 20
257.1001498499
 30
0.0
 11
61.425689297
 21
254.6001498499
 31
0.0
  0
MTEXT
  5
295
330
28B
100
AcDbEntity
  8
0
  6
SLD-Durchgehend
 62
     7
370
     0
100
AcDbMText
 10
57.5584859613
 20
256.2687685207
 30
0.0
 40
3.0
 41
0.0
 71
     1
 72
     1
  1
%%c
  7
SLDTEXTSTYLE0
 11
-7.044195017643634E-15
 21
1.0
 31
0.0
 73
     1
 44
1.0
  0
MTEXT
  5
296
330
28B
100
AcDbEntity
  8
0
  6
SLD-Durchgehend
 62
     7
370
     0
100
AcDbMText
 10
57.5584858449
 20
260.6403077612
 30
0.0
 40
3.0
 41
0.0
 71
     1
 72
     1
  1
5
  7
SLDTEXTSTYLE0
 11
-7.044195017643634E-15
 21
1.0
 31
0.0
 73
     1
 44
1.0
  0
ENDBLK
  5
28D
330
28B
100
AcDbEntity
  8
0
100
AcDbBlockEnd
  0
BLOCK
  5
299
330
298
100
AcDbEntity
  8
0
100
AcDbBlockBegin
  2
_D_10
 70
     0
 10
0.0
 20
0.0
 30
0.0
  3
_D_10
  1

  0
SOLID
  5
29B
330
298
100
AcDbEntity
  8
0
  6
SLD-Durchgehend
 62
     7
370
     0
100
AcDbTrace
 10
72.9212662849
 20
284.4609528761
 30
0.0
 11
75.4212662849
 21
284.1509528761
 31
0.0
 12
75.4212662849
 22
284.7709528761
 32
0.0
 13
75.4212662849
 23
284.7709528761
 33
0.0
  0
SOLID
  5
29C
330
298
100
AcDbEntity
  8
0
  6
SLD-Durchgehend
 62
     7
370
     0
100
AcDbTrace
 10
94.5212662849
 20
284.4609528761
 30
0.0
 11
92.0212662849
 21
284.7709528761
 31
0.0
 12
92.0212662849
 22
284.1509528761
 32
0.0
 13
92.0212662849
 23
284.1509528761
 33
0.0
  0
LINE
  5
29D
330
298
100
AcDbEntity
  8
0
  6
SLD-Durchgehend
 62
     7
370
     0
100
AcDbLine
 10
72.9212662849
 20
265.6001498499
 30
0.0
 11
72.9212662849
 21
285.4609528761
 31
0.0
  0
LINE
  5
29E
330
298
100
AcDbEntity
  8
0
  6
SLD-Durchgehend
 62
     7
370
     0
100
AcDbLine
 10
94.5212662849
 20
265.6001498499
 30
0.0
 11
94.5212662849
 21
285.4609528761
 31
0.0
  0
LINE
  5
29F
330
298
100
AcDbEntity
  8
0
  6
SLD-Durchgehend
 62
     7
370
     0
100
AcDbLine
 10
72.9212662849
 20
284.4609528761
 30
0.0
 11
94.5212662849
 21
284.4609528761
 31
0.0
  0
MTEXT
  5
2A0
330
298
100
AcDbEntity
  8
0
  6
SLD-Durchgehend
 62
     7
370
     0
100
AcDbMText
 10
79.9805883188
 20
288.3281563282
 30
0.0
 40
3.0
 41
0.0
 71
     1
 72
     1
  1
21,6
  7
SLDTEXTSTYLE0
 73
     1
 44
1.0
  0
ENDBLK
  5
29A
330
298
100
AcDbEntity
  8
0
100
AcDbBlockEnd
  0
BLOCK
  5
2A2
330
2A1
100
AcDbEntity
  8
0
100
AcDbBlockBegin
  2
SW_CENTERMARKSYMBOL_0
 70
     0
 10
0.0
 20
0.0
 30
0.0
  3
SW_CENTERMARKSYMBOL_0
  1

  0
LINE
  5
2A4
330
2A1
100
AcDbEntity
  8
0
  6
SLD-Durchgehend
 62
     0
370
     0
100
AcDbLine
 10
0.0
 20
0.0
 30
0.0
 11
0.0
 21
2.5
 31
0.0
  0
LINE
  5
2A5
330
2A1
100
AcDbEntity
  8
0
  6
SLD-Durchgehend
 62
     0
370
     0
100
AcDbLine
 10
0.0
 20
0.0
 30
0.0
 11
-2.5
 21
0.0
 31
0.0
  0
LINE
  5
2A6
330
2A1
100
AcDbEntity
  8
0
  6
SLD-Durchgehend
 62
     0
370
     0
100
AcDbLine
 10
0.0
 20
0.0
 30
0.0
 11
0.0
 21
-2.5
 31
0.0
  0
LINE
  5
2A7
330
2A1
100
AcDbEntity
  8
0
  6
SLD-Durchgehend
 62
     0
370
     0
100
AcDbLine
 10
0.0
 20
0.0
 30
0.0
 11
2.5
 21
0.0
 31
0.0
  0
LINE
  5
2A8
330
2A1
100
AcDbEntity
  8
0
  6
SLD-Durchgehend
 62
     0
370
     0
100
AcDbLine
 10
0.0
 20
2.5
 30
0.0
 11
0.0
 21
5.0
 31
0.0
  0
LINE
  5
2A9
330
2A1
100
AcDbEntity
  8
0
  6
SLD-Durchgehend
 62
     0
370
     0
100
AcDbLine
 10
-2.5
 20
0.0
 30
0.0
 11
-5.0
 21
0.0
 31
0.0
  0
LINE
  5
2AA
330
2A1
100
AcDbEntity
  8
0
  6
SLD-Durchgehend
 62
     0
370
     0
100
AcDbLine
 10
0.0
 20
-2.5
 30
0.0
 11
0.0
 21
-5.0
 31
0.0
  0
LINE
  5
2AB
330
2A1
100
AcDbEntity
  8
0
  6
SLD-Durchgehend
 62
     0
370
     0
100
AcDbLine
 10
2.5
 20
0.0
 30
0.0
 11
5.0
 21
0.0
 31
0.0
  0
ENDBLK
  5
2A3
330
2A1
100
AcDbEntity
  8
0
100
AcDbBlockEnd
  0
BLOCK
  5
2AE
330
2AD
100
AcDbEntity
  8
0
100
AcDbBlockBegin
  2
SW_CENTERMARKSYMBOL_1
 70
     0
 10
0.0
 20
0.0
 30
0.0
  3
SW_CENTERMARKSYMBOL_1
  1

  0
LINE
  5
2B0
330
2AD
100
AcDbEntity
  8
0
  6
SLD-Durchgehend
 62
     0
370
     0
100
AcDbLine
 10
0.0
 20
0.0
 30
0.0
 11
0.0
 21
2.5
 31
0.0
  0
LINE
  5
2B1
330
2AD
100
AcDbEntity
  8
0
  6
SLD-Durchgehend
 62
     0
370
     0
100
AcDbLine
 10
0.0
 20
0.0
 30
0.0
 11
-2.5
 21
0.0
 31
0.0
  0
LINE
  5
2B2
330
2AD
100
AcDbEntity
  8
0
  6
SLD-Durchgehend
 62
     0
370
     0
100
AcDbLine
 10
0.0
 20
0.0
 30
0.0
 11
0.0
 21
-2.5
 31
0.0
  0
LINE
  5
2B3
330
2AD
100
AcDbEntity
  8
0
  6
SLD-Durchgehend
 62
     0
370
     0
100
AcDbLine
 10
0.0
 20
0.0
 30
0.0
 11
2.5
 21
0.0
 31
0.0
  0
LINE
  5
2B4
330
2AD
100
AcDbEntity
  8
0
  6
SLD-Durchgehend
 62
     0
370
     0
100
AcDbLine
 10
0.0
 20
2.5
 30
0.0
 11
0.0
 21
5.0
 31
0.0
  0
LINE
  5
2B5
330
2AD
100
AcDbEntity
  8
0
  6
SLD-Durchgehend
 62
     0
370
     0
100
AcDbLine
 10
-2.5
 20
0.0
 30
0.0
 11
-5.0
 21
0.0
 31
0.0
  0
LINE
  5
2B6
330
2AD
100
AcDbEntity
  8
0
  6
SLD-Durchgehend
 62
     0
370
     0
100
AcDbLine
 10
0.0
 20
-2.5
 30
0.0
 11
0.0
 21
-5.0
 31
0.0
  0
LINE
  5
2B7
330
2AD
100
AcDbEntity
  8
0
  6
SLD-Durchgehend
 62
     0
370
     0
100
AcDbLine
 10
2.5
 20
0.0
 30
0.0
 11
5.0
 21
0.0
 31
0.0
  0
ENDBLK
  5
2AF
330
2AD
100
AcDbEntity
  8
0
100
AcDbBlockEnd
  0
BLOCK
  5
2BA
330
2B9
100
AcDbEntity
  8
0
100
AcDbBlockBegin
  2
SW_CENTERMARKSYMBOL_2
 70
     0
 10
0.0
 20
0.0
 30
0.0
  3
SW_CENTERMARKSYMBOL_2
  1

  0
LINE
  5
2BC
330
2B9
100
AcDbEntity
  8
0
  6
SLD-Durchgehend
 62
     0
370
     0
100
AcDbLine
 10
0.0
 20
0.0
 30
0.0
 11
0.0
 21
2.5
 31
0.0
  0
LINE
  5
2BD
330
2B9
100
AcDbEntity
  8
0
  6
SLD-Durchgehend
 62
     0
370
     0
100
AcDbLine
 10
0.0
 20
0.0
 30
0.0
 11
-2.5
 21
0.0
 31
0.0
  0
LINE
  5
2BE
330
2B9
100
AcDbEntity
  8
0
  6
SLD-Durchgehend
 62
     0
370
     0
100
AcDbLine
 10
0.0
 20
0.0
 30
0.0
 11
0.0
 21
-2.5
 31
0.0
  0
LINE
  5
2BF
330
2B9
100
AcDbEntity
  8
0
  6
SLD-Durchgehend
 62
     0
370
     0
100
AcDbLine
 10
0.0
 20
0.0
 30
0.0
 11
2.5
 21
0.0
 31
0.0
  0
LINE
  5
2C0
330
2B9
100
AcDbEntity
  8
0
  6
SLD-Durchgehend
 62
     0
370
     0
100
AcDbLine
 10
0.0
 20
5.0
 30
0.0
 11
0.0
 21
16.92
 31
0.0
  0
LINE
  5
2C1
330
2B9
100
AcDbEntity
  8
0
  6
SLD-Durchgehend
 62
     0
370
     0
100
AcDbLine
 10
-5.0
 20
0.0
 30
0.0
 11
-16.92
 21
0.0
 31
0.0
  0
LINE
  5
2C2
330
2B9
100
AcDbEntity
  8
0
  6
SLD-Durchgehend
 62
     0
370
     0
100
AcDbLine
 10
0.0
 20
-5.0
 30
0.0
 11
0.0
 21
-16.92
 31
0.0
  0
LINE
  5
2C3
330
2B9
100
AcDbEntity
  8
0
  6
SLD-Durchgehend
 62
     0
370
     0
100
AcDbLine
 10
5.0
 20
0.0
 30
0.0
 11
16.92
 21
0.0
 31
0.0
  0
ENDBLK
  5
2BB
330
2B9
100
AcDbEntity
  8
0
100
AcDbBlockEnd
  0
BLOCK
  5
2C6
330
2C5
100
AcDbEntity
  8
0
100
AcDbBlockBegin
  2
SW_CENTERMARKSYMBOL_3
 70
     0
 10
0.0
 20
0.0
 30
0.0
  3
SW_CENTERMARKSYMBOL_3
  1

  0
LINE
  5
2C8
330
2C5
100
AcDbEntity
  8
0
  6
SLD-Durchgehend
 62
     0
370
     0
100
AcDbLine
 10
0.0
 20
0.0
 30
0.0
 11
0.0
 21
2.5
 31
0.0
  0
LINE
  5
2C9
330
2C5
100
AcDbEntity
  8
0
  6
SLD-Durchgehend
 62
     0
370
     0
100
AcDbLine
 10
0.0
 20
0.0
 30
0.0
 11
-2.5
 21
0.0
 31
0.0
  0
LINE
  5
2CA
330
2C5
100
AcDbEntity
  8
0
  6
SLD-Durchgehend
 62
     0
370
     0
100
AcDbLine
 10
0.0
 20
0.0
 30
0.0
 11
0.0
 21
-2.5
 31
0.0
  0
LINE
  5
2CB
330
2C5
100
AcDbEntity
  8
0
  6
SLD-Durchgehend
 62
     0
370
     0
100
AcDbLine
 10
0.0
 20
0.0
 30
0.0
 11
2.5
 21
0.0
 31
0.0
  0
LINE
  5
2CC
330
2C5
100
AcDbEntity
  8
0
  6
SLD-Durchgehend
 62
     0
370
     0
100
AcDbLine
 10
0.0
 20
5.0
 30
0.0
 11
0.0
 21
23.2507636771
 31
0.0
  0
LINE
  5
2CD
330
2C5
100
AcDbEntity
  8
0
  6
SLD-Durchgehend
 62
     0
370
     0
100
AcDbLine
 10
-5.0
 20
0.0
 30
0.0
 11
-23.25
 21
0.0
 31
0.0
  0
LINE
  5
2CE
330
2C5
100
AcDbEntity
  8
0
  6
SLD-Durchgehend
 62
     0
370
     0
100
AcDbLine
 10
0.0
 20
-5.0
 30
0.0
 11
0.0
 21
-23.25
 31
0.0
  0
LINE
  5
2CF
330
2C5
100
AcDbEntity
  8
0
  6
SLD-Durchgehend
 62
     0
370
     0
100
AcDbLine
 10
5.0
 20
0.0
 30
0.0
 11
23.678457239
 21
0.0
 31
0.0
  0
ENDBLK
  5
2C7
330
2C5
100
AcDbEntity
  8
0
100
AcDbBlockEnd
  0
ENDSEC
  0
SECTION
  2
ENTITIES
  0
HATCH
  5
9F
330
1F
100
AcDbEntity
  8
0
  6
Continuous
 62
    52
100
AcDbHatch
 10
0.0
 20
0.0
 30
0.0
210
0.0
220
0.0
230
1.0
  2
SOLID
 70
     1
 71
     0
 91
        1
 92
        0
 93
        6
 72
     2
 10
192.2166905884209
 20
22.19368183392314
 40
9.336383935046273
 50
28.83743273930616
 51
198.8193368338524
 73
     1
 72
     1
 10
183.3794255903912
 20
19.18190290159951
 11
183.7816097341537
 21
19.18190290159951
 72
     1
 10
183.7816097341537
 20
19.18190290159951
 11
185.8103449730125
 21
26.54854125382066
 72
     1
 10
185.8103449730125
 20
26.54854125382066
 11
187.6133250240623
 21
26.54854125382066
 72
     2
 10
193.3341692458887
 20
24.54038196427235
 40
6.063065424568993
 50
199.342348098532
 51
339.1651749394908
 73
     0
 72
     1
 10
199.0007687940603
 20
26.69686333522488
 11
200.3952859047893
 21
26.69686333522488
 97
        0
 75
     0
 76
     1
 98
        1
 10
0.0
 20
0.0
  0
HATCH
  5
A0
330
1F
100
AcDbEntity
  8
0
  6
Continuous
 62
     7
100
AcDbHatch
 10
0.0
 20
0.0
 30
0.0
210
0.0
220
0.0
230
1.0
  2
SOLID
 70
     1
 71
     0
 91
        2
 92
        0
 93
        6
 72
     1
 10
185.9093832949075
 20
26.41854125382066
 11
187.7062226385283
 21
26.41854125382066
 72
     2
 10
193.3341692458887
 20
24.54038196427235
 40
5.933065424568984
 50
198.4548941224165
 51
340.0282228512785
 73
     0
 72
     1
 10
198.9104259280544
 20
26.56686333522488
 11
200.6123864120185
 21
26.56686333522488
 72
     2
 10
192.2166905884209
 20
22.19368183392314
 40
9.466383935046263
 50
27.51427472226149
 51
199.3834076115144
 73
     1
 72
     1
 10
183.2868725641771
 20
19.05190290159951
 11
183.8806480560487
 21
19.05190290159951
 72
     1
 10
183.8806480560487
 20
19.05190290159951
 11
185.9093832949075
 21
26.41854125382066
 97
        0
 92
        0
 93
        6
 72
     1
 10
183.7816097341537
 20
19.18190290159951
 11
183.3794255903912
 21
19.18190290159951
 72
     2
 10
192.2166905884209
 20
22.19368183392314
 40
9.336383935046273
 50
161.1806631661484
 51
331.1625672606947
 73
     0
 72
     1
 10
200.3952859047893
 20
26.69686333522488
 11
199.0007687940603
 21
26.69686333522488
 72
     2
 10
193.3341692458887
 20
24.54038196427235
 40
6.063065424568993
 50
20.83482506051003
 51
160.6576519014688
 73
     1
 72
     1
 10
187.6133250240623
 20
26.54854125382066
 11
185.8103449730125
 21
26.54854125382066
 72
     1
 10
185.8103449730125
 20
26.54854125382066
 11
183.7816097341537
 21
19.18190290159951
 97
        0
 75
     0
 76
     1
 98
        1
 10
0.0
 20
0.0
  0
HATCH
  5
A1
330
1F
100
AcDbEntity
  8
0
  6
Continuous
 62
     7
100
AcDbHatch
 10
0.0
 20
0.0
 30
0.0
210
0.0
220
0.0
230
1.0
  2
SOLID
 70
     1
 71
     0
 91
        2
 92
        0
 93
        3
 72
     1
 10
188.1360432780339
 20
21.32616695171929
 11
187.5549013500252
 21
19.05190290159951
 72
     1
 10
187.5549013500252
 20
19.05190290159951
 11
189.0761880166766
 21
19.05190290159951
 72
     1
 10
189.0761880166766
 20
19.05190290159951
 11
188.1360432780339
 21
21.32616695171929
 97
        0
 92
        0
 93
        3
 72
     1
 10
188.8817783160102
 20
19.18190290159951
 11
187.7222972997866
 21
19.18190290159951
 72
     1
 10
187.7222972997866
 20
19.18190290159951
 11
188.1652269908361
 21
20.91528165906799
 72
     1
 10
188.1652269908361
 20
20.91528165906799
 11
188.8817783160102
 21
19.18190290159951
 97
        0
 75
     0
 76
     1
 98
        1
 10
0.0
 20
0.0
  0
HATCH
  5
A2
330
1F
100
AcDbEntity
  8
0
  6
Continuous
 62
    52
100
AcDbHatch
 10
0.0
 20
0.0
 30
0.0
210
0.0
220
0.0
230
1.0
  2
SOLID
 70
     1
 71
     0
 91
        1
 92
        0
 93
        3
 72
     1
 10
188.1652269908361
 20
20.91528165906799
 11
187.7222972997866
 21
19.18190290159951
 72
     1
 10
187.7222972997866
 20
19.18190290159951
 11
188.8817783160102
 21
19.18190290159951
 72
     1
 10
188.8817783160102
 20
19.18190290159951
 11
188.1652269908361
 21
20.91528165906799
 97
        0
 75
     0
 76
     1
 98
        1
 10
0.0
 20
0.0
  0
HATCH
  5
A3
330
1F
100
AcDbEntity
  8
0
  6
Continuous
 62
     7
100
AcDbHatch
 10
0.0
 20
0.0
 30
0.0
210
0.0
220
0.0
230
1.0
  2
SOLID
 70
     1
 71
     0
 91
        1
 92
        0
 93
       10
 72
     1
 10
186.2557525416791
 20
26.17133921476775
 11
184.4249433061573
 21
19.10134359540109
 72
     1
 10
184.4249433061573
 20
19.10134359540109
 11
186.9979725360538
 21
19.10134359540109
 72
     1
 10
186.9979725360538
 20
19.10134359540109
 11
187.9875987755306
 21
22.90826414852663
 72
     1
 10
187.9875987755306
 20
22.90826414852663
 11
189.5215202651155
 21
19.1013435954011
 72
     1
 10
189.5215202651155
 20
19.1013435954011
 11
192.1935124966802
 21
19.1013435954011
 72
     1
 10
192.1935124966802
 20
19.1013435954011
 11
193.8758772296986
 21
26.07245782716463
 72
     1
 10
193.8758772296986
 20
26.07245782716463
 11
191.4512925023056
 21
26.07245782716463
 72
     1
 10
191.4512925023056
 20
26.07245782716463
 11
190.5606280054267
 21
22.16665660141341
 72
     1
 10
190.5606280054267
 20
22.16665660141341
 11
188.8782632724091
 21
26.17133921476775
 72
     1
 10
188.8782632724091
 20
26.17133921476775
 11
186.2557525416791
 21
26.17133921476775
 97
        0
 75
     0
 76
     1
 98
        1
 10
0.0
 20
0.0
  0
HATCH
  5
A4
330
1F
100
AcDbEntity
  8
0
  6
Continuous
 62
     7
100
AcDbHatch
 10
0.0
 20
0.0
 30
0.0
210
0.0
220
0.0
230
1.0
  2
SOLID
 70
     1
 71
     0
 91
        1
 92
        0
 93
        8
 72
     1
 10
194.469653980641
 20
26.1218985209666
 11
193.7274339862659
 21
23.25434757518244
 72
     1
 10
193.7274339862659
 20
23.25434757518244
 11
194.1727662347047
 21
19.00246292277559
 72
     1
 10
194.1727662347047
 20
19.00246292277559
 11
197.3395709564733
 21
19.00246292277558
 72
     1
 10
197.3395709564733
 20
19.00246292277558
 11
201.5454846776287
 21
26.07245782718087
 72
     1
 10
201.5454846776287
 20
26.07245782718087
 11
198.7745294443889
 21
26.07245782718087
 72
     1
 10
198.7745294443889
 20
26.07245782718087
 11
196.5478694612618
 21
22.06777521384519
 72
     1
 10
196.5478694612618
 20
22.06777521384519
 11
196.0530569710605
 21
26.1218985209666
 72
     1
 10
196.0530569710605
 20
26.1218985209666
 11
194.469653980641
 21
26.1218985209666
 97
        0
 75
     0
 76
     1
 98
        1
 10
0.0
 20
0.0
  0
HATCH
  5
A5
330
1F
100
AcDbEntity
  8
0
  6
Continuous
 62
     7
100
AcDbHatch
 10
0.0
 20
0.0
 30
0.0
210
0.0
220
0.0
230
1.0
  2
SOLID
 70
     1
 71
     0
 91
        2
 92
        0
 93
        3
 72
     2
 10
193.6015949770801
 20
21.88049322517952
 40
8.003675602344133
 50
339.3038849228831
 51
377.0191257258724
 73
     1
 72
     1
 10
201.2547664701381
 20
24.22309631691353
 11
198.0323094500141
 21
19.05190290159951
 72
     1
 10
198.0323094500141
 20
19.05190290159951
 11
201.088777352908
 21
19.05190290159951
 97
        0
 92
        0
 93
        3
 72
     1
 10
198.2664948845861
 20
19.18190290159951
 11
201.2102984795193
 21
23.90593107979706
 72
     2
 10
193.6015949770801
 20
21.88049322517952
 40
7.873675602344147
 50
345.0935417050616
 51
380.0436402959712
 73
     0
 72
     1
 10
200.9983765580401
 20
19.18190290159951
 11
198.2664948845861
 21
19.18190290159951
 97
        0
 75
     0
 76
     1
 98
        1
 10
0.0
 20
0.0
  0
HATCH
  5
A6
330
1F
100
AcDbEntity
  8
0
  6
Continuous
 62
    52
100
AcDbHatch
 10
0.0
 20
0.0
 30
0.0
210
0.0
220
0.0
230
1.0
  2
SOLID
 70
     1
 71
     0
 91
        1
 92
        0
 93
        3
 72
     2
 10
193.6015949770801
 20
21.88049322517952
 40
7.873675602344147
 50
339.9563597040304
 51
374.90645829494
 73
     1
 72
     1
 10
201.2102984795193
 20
23.90593107979706
 11
198.2664948845861
 21
19.18190290159951
 72
     1
 10
198.2664948845861
 20
19.18190290159951
 11
200.9983765580401
 21
19.18190290159951
 97
        0
 75
     0
 76
     1
 98
        1
 10
0.0
 20
0.0
  0
LINE
  5
A7
330
1F
100
AcDbEntity
  8
0
  6
SLD-Durchgehend
 62
     7
370
     0
100
AcDbLine
 10
17.0
 20
148.5
 30
0.0
 11
0.0
 21
148.5
 31
0.0
  0
LINE
  5
A8
330
1F
100
AcDbEntity
  8
0
  6
SLD-Durchgehend
 62
     7
370
     0
100
AcDbLine
 10
17.0
 20
292.0
 30
0.0
 11
205.0
 21
292.0
 31
0.0
  0
LINE
  5
A9
330
1F
100
AcDbEntity
  8
0
  6
SLD-Durchgehend
 62
     7
370
     0
100
AcDbLine
 10
17.0
 20
292.0
 30
0.0
 11
17.0
 21
5.0
 31
0.0
  0
LINE
  5
AA
330
1F
100
AcDbEntity
  8
0
  6
SLD-Durchgehend
 62
     7
370
     0
100
AcDbLine
 10
17.0
 20
5.0
 30
0.0
 11
205.0
 21
5.0
 31
0.0
  0
LINE
  5
AB
330
1F
100
AcDbEntity
  8
0
  6
SLD-Durchgehend
 62
     7
370
     0
100
AcDbLine
 10
205.0
 20
292.0
 30
0.0
 11
205.0
 21
5.0
 31
0.0
  0
LINE
  5
AC
330
1F
100
AcDbEntity
  8
0
  6
SLD-Durchgehend
 62
     7
370
     0
100
AcDbLine
 10
17.0
 20
40.0
 30
0.0
 11
17.0
 21
5.0
 31
0.0
  0
LINE
  5
AD
330
1F
100
AcDbEntity
  8
0
  6
SLD-Durchgehend
 62
     7
370
     0
100
AcDbLine
 10
17.0
 20
5.0
 30
0.0
 11
205.0
 21
5.0
 31
0.0
  0
LINE
  5
AE
330
1F
100
AcDbEntity
  8
0
  6
SLD-Durchgehend
 62
     7
370
     0
100
AcDbLine
 10
205.0
 20
40.0
 30
0.0
 11
205.0
 21
5.0
 31
0.0
  0
LINE
  5
AF
330
1F
100
AcDbEntity
  8
0
  6
SLD-Durchgehend
 62
     7
370
     0
100
AcDbLine
 10
17.0
 20
40.0
 30
0.0
 11
205.0
 21
40.0
 31
0.0
  0
LINE
  5
B0
330
1F
100
AcDbEntity
  8
0
  6
SLD-Durchgehend
 62
     7
370
     0
100
AcDbLine
 10
140.0
 20
40.0
 30
0.0
 11
140.0
 21
5.0
 31
0.0
  0
LINE
  5
B1
330
1F
100
AcDbEntity
  8
0
  6
SLD-Durchgehend
 62
     7
370
     0
100
AcDbLine
 10
69.0
 20
40.0
 30
0.0
 11
69.0
 21
5.0
 31
0.0
  0
LINE
  5
B2
330
1F
100
AcDbEntity
  8
0
  6
SLD-Durchgehend
 62
     7
370
     0
100
AcDbLine
 10
17.0
 20
45.5
 30
0.0
 11
17.0
 21
37.5
 31
0.0
  0
LINE
  5
B3
330
1F
100
AcDbEntity
  8
0
  6
SLD-Durchgehend
 62
     7
370
     0
100
AcDbLine
 10
17.0
 20
19.5
 30
0.0
 11
69.0
 21
19.5
 31
0.0
  0
LINE
  5
B4
330
1F
100
AcDbEntity
  8
0
  6
SLD-Durchgehend
 62
     7
370
     0
100
AcDbLine
 10
205.0
 20
45.5
 30
0.0
 11
205.0
 21
37.5
 31
0.0
  0
LINE
  5
B5
330
1F
100
AcDbEntity
  8
0
  6
SLD-Durchgehend
 62
     7
370
     0
100
AcDbLine
 10
17.0
 20
12.25
 30
0.0
 11
69.0
 21
12.25
 31
0.0
  0
LINE
  5
B6
330
1F
100
AcDbEntity
  8
0
  6
SLD-Durchgehend
 62
     7
370
     0
100
AcDbLine
 10
0.0
 20
0.0
 30
0.0
 11
210.0
 21
0.0
 31
0.0
  0
LINE
  5
B7
330
1F
100
AcDbEntity
  8
0
  6
SLD-Durchgehend
 62
     7
370
     0
100
AcDbLine
 10
0.0
 20
0.0
 30
0.0
 11
0.0
 21
297.0
 31
0.0
  0
LINE
  5
B8
330
1F
100
AcDbEntity
  8
0
  6
SLD-Durchgehend
 62
     7
370
     0
100
AcDbLine
 10
0.0
 20
297.0
 30
0.0
 11
210.0
 21
297.0
 31
0.0
  0
LINE
  5
B9
330
1F
100
AcDbEntity
  8
0
  6
SLD-Durchgehend
 62
     7
370
     0
100
AcDbLine
 10
210.0
 20
0.0
 30
0.0
 11
210.0
 21
297.0
 31
0.0
  0
LINE
  5
BA
330
1F
100
AcDbEntity
  8
0
  6
SLD-Durchgehend
 62
     7
370
     0
100
AcDbLine
 10
183.2868725642
 20
19.0519029016
 30
0.0
 11
183.880648056
 21
19.0519029016
 31
0.0
  0
LINE
  5
BB
330
1F
100
AcDbEntity
  8
0
  6
SLD-Durchgehend
 62
     7
370
     0
100
AcDbLine
 10
183.880648056
 20
19.0519029016
 30
0.0
 11
185.9093832949
 21
26.4185412538
 31
0.0
  0
LINE
  5
BC
330
1F
100
AcDbEntity
  8
0
  6
SLD-Durchgehend
 62
     7
370
     0
100
AcDbLine
 10
185.9093832949
 20
26.4185412538
 30
0.0
 11
187.7062226385
 21
26.4185412538
 31
0.0
  0
LINE
  5
BD
330
1F
100
AcDbEntity
  8
0
  6
SLD-Durchgehend
 62
     7
370
     0
100
AcDbLine
 10
198.9104259281
 20
26.5668633352
 30
0.0
 11
200.612386412
 21
26.5668633352
 31
0.0
  0
LINE
  5
BE
330
1F
100
AcDbEntity
  8
0
  6
SLD-Durchgehend
 62
     7
370
     0
100
AcDbLine
 10
186.2557525417
 20
26.1713392148
 30
0.0
 11
188.8782632724
 21
26.1713392148
 31
0.0
  0
LINE
  5
BF
330
1F
100
AcDbEntity
  8
0
  6
SLD-Durchgehend
 62
     7
370
     0
100
AcDbLine
 10
188.8782632724
 20
26.1713392148
 30
0.0
 11
190.5606280054
 21
22.1666566014
 31
0.0
  0
LINE
  5
C0
330
1F
100
AcDbEntity
  8
0
  6
SLD-Durchgehend
 62
     7
370
     0
100
AcDbLine
 10
190.5606280054
 20
22.1666566014
 30
0.0
 11
191.4512925023
 21
26.0724578272
 31
0.0
  0
LINE
  5
C1
330
1F
100
AcDbEntity
  8
0
  6
SLD-Durchgehend
 62
     7
370
     0
100
AcDbLine
 10
191.4512925023
 20
26.0724578272
 30
0.0
 11
193.8758772297
 21
26.0724578272
 31
0.0
  0
LINE
  5
C2
330
1F
100
AcDbEntity
  8
0
  6
SLD-Durchgehend
 62
     7
370
     0
100
AcDbLine
 10
193.8758772297
 20
26.0724578272
 30
0.0
 11
192.1935124967
 21
19.1013435954
 31
0.0
  0
LINE
  5
C3
330
1F
100
AcDbEntity
  8
0
  6
SLD-Durchgehend
 62
     7
370
     0
100
AcDbLine
 10
192.1935124967
 20
19.1013435954
 30
0.0
 11
189.5215202651
 21
19.1013435954
 31
0.0
  0
LINE
  5
C4
330
1F
100
AcDbEntity
  8
0
  6
SLD-Durchgehend
 62
     7
370
     0
100
AcDbLine
 10
189.5215202651
 20
19.1013435954
 30
0.0
 11
187.9875987755
 21
22.9082641485
 31
0.0
  0
LINE
  5
C5
330
1F
100
AcDbEntity
  8
0
  6
SLD-Durchgehend
 62
     7
370
     0
100
AcDbLine
 10
187.9875987755
 20
22.9082641485
 30
0.0
 11
186.9979725361
 21
19.1013435954
 31
0.0
  0
LINE
  5
C6
330
1F
100
AcDbEntity
  8
0
  6
SLD-Durchgehend
 62
     7
370
     0
100
AcDbLine
 10
186.9979725361
 20
19.1013435954
 30
0.0
 11
184.4249433062
 21
19.1013435954
 31
0.0
  0
LINE
  5
C7
330
1F
100
AcDbEntity
  8
0
  6
SLD-Durchgehend
 62
     7
370
     0
100
AcDbLine
 10
184.4249433062
 20
19.1013435954
 30
0.0
 11
186.2557525417
 21
26.1713392148
 31
0.0
  0
LINE
  5
C8
330
1F
100
AcDbEntity
  8
0
  6
SLD-Durchgehend
 62
     7
370
     0
100
AcDbLine
 10
188.136043278
 20
21.3261669517
 30
0.0
 11
189.0761880167
 21
19.0519029016
 31
0.0
  0
LINE
  5
C9
330
1F
100
AcDbEntity
  8
0
  6
SLD-Durchgehend
 62
     7
370
     0
100
AcDbLine
 10
189.0761880167
 20
19.0519029016
 30
0.0
 11
187.55490135
 21
19.0519029016
 31
0.0
  0
LINE
  5
CA
330
1F
100
AcDbEntity
  8
0
  6
SLD-Durchgehend
 62
     7
370
     0
100
AcDbLine
 10
187.55490135
 20
19.0519029016
 30
0.0
 11
188.136043278
 21
21.3261669517
 31
0.0
  0
LINE
  5
CB
330
1F
100
AcDbEntity
  8
0
  6
SLD-Durchgehend
 62
     7
370
     0
100
AcDbLine
 10
194.4696539806
 20
26.121898521
 30
0.0
 11
196.0530569711
 21
26.121898521
 31
0.0
  0
LINE
  5
CC
330
1F
100
AcDbEntity
  8
0
  6
SLD-Durchgehend
 62
     7
370
     0
100
AcDbLine
 10
196.0530569711
 20
26.121898521
 30
0.0
 11
196.5478694613
 21
22.0677752138
 31
0.0
  0
LINE
  5
CD
330
1F
100
AcDbEntity
  8
0
  6
SLD-Durchgehend
 62
     7
370
     0
100
AcDbLine
 10
196.5478694613
 20
22.0677752138
 30
0.0
 11
198.7745294444
 21
26.0724578272
 31
0.0
  0
LINE
  5
CE
330
1F
100
AcDbEntity
  8
0
  6
SLD-Durchgehend
 62
     7
370
     0
100
AcDbLine
 10
198.7745294444
 20
26.0724578272
 30
0.0
 11
201.5454846776
 21
26.0724578272
 31
0.0
  0
LINE
  5
CF
330
1F
100
AcDbEntity
  8
0
  6
SLD-Durchgehend
 62
     7
370
     0
100
AcDbLine
 10
201.5454846776
 20
26.0724578272
 30
0.0
 11
197.3395709565
 21
19.0024629228
 31
0.0
  0
LINE
  5
D0
330
1F
100
AcDbEntity
  8
0
  6
SLD-Durchgehend
 62
     7
370
     0
100
AcDbLine
 10
197.3395709565
 20
19.0024629228
 30
0.0
 11
194.1727662347
 21
19.0024629228
 31
0.0
  0
LINE
  5
D1
330
1F
100
AcDbEntity
  8
0
  6
SLD-Durchgehend
 62
     7
370
     0
100
AcDbLine
 10
194.1727662347
 20
19.0024629228
 30
0.0
 11
193.7274339863
 21
23.2543475752
 31
0.0
  0
LINE
  5
D2
330
1F
100
AcDbEntity
  8
0
  6
SLD-Durchgehend
 62
     7
370
     0
100
AcDbLine
 10
193.7274339863
 20
23.2543475752
 30
0.0
 11
194.4696539806
 21
26.121898521
 31
0.0
  0
LINE
  5
D3
330
1F
100
AcDbEntity
  8
0
  6
SLD-Durchgehend
 62
     7
370
     0
100
AcDbLine
 10
198.03230945
 20
19.0519029016
 30
0.0
 11
201.2547664701
 21
24.2230963169
 31
0.0
  0
LINE
  5
D4
330
1F
100
AcDbEntity
  8
0
  6
SLD-Durchgehend
 62
     7
370
     0
100
AcDbLine
 10
198.03230945
 20
19.0519029016
 30
0.0
 11
201.0887773529
 21
19.0519029016
 31
0.0
  0
LINE
  5
D5
330
1F
100
AcDbEntity
  8
0
  6
SLD-Durchgehend
 62
     7
370
     0
100
AcDbLine
 10
198.2664948846
 20
19.1819029016
 30
0.0
 11
200.998376558
 21
19.1819029016
 31
0.0
  0
LINE
  5
D6
330
1F
100
AcDbEntity
  8
0
  6
SLD-Durchgehend
 62
     7
370
     0
100
AcDbLine
 10
198.2664948846
 20
19.1819029016
 30
0.0
 11
201.2102984795
 21
23.9059310798
 31
0.0
  0
LINE
  5
D7
330
1F
100
AcDbEntity
  8
0
  6
SLD-Durchgehend
 62
     7
370
     0
100
AcDbLine
 10
199.0007687941
 20
26.6968633352
 30
0.0
 11
200.3952859048
 21
26.6968633352
 31
0.0
  0
LINE
  5
D8
330
1F
100
AcDbEntity
  8
0
  6
SLD-Durchgehend
 62
     7
370
     0
100
AcDbLine
 10
183.3794255904
 20
19.1819029016
 30
0.0
 11
183.7816097342
 21
19.1819029016
 31
0.0
  0
LINE
  5
D9
330
1F
100
AcDbEntity
  8
0
  6
SLD-Durchgehend
 62
     7
370
     0
100
AcDbLine
 10
183.7816097342
 20
19.1819029016
 30
0.0
 11
185.810344973
 21
26.5485412538
 31
0.0
  0
LINE
  5
DA
330
1F
100
AcDbEntity
  8
0
  6
SLD-Durchgehend
 62
     7
370
     0
100
AcDbLine
 10
185.810344973
 20
26.5485412538
 30
0.0
 11
187.6133250241
 21
26.5485412538
 31
0.0
  0
LINE
  5
DB
330
1F
100
AcDbEntity
  8
0
  6
SLD-Durchgehend
 62
     7
370
     0
100
AcDbLine
 10
188.1652269908
 20
20.9152816591
 30
0.0
 11
188.881778316
 21
19.1819029016
 31
0.0
  0
LINE
  5
DC
330
1F
100
AcDbEntity
  8
0
  6
SLD-Durchgehend
 62
     7
370
     0
100
AcDbLine
 10
188.881778316
 20
19.1819029016
 30
0.0
 11
187.7222972998
 21
19.1819029016
 31
0.0
  0
LINE
  5
DD
330
1F
100
AcDbEntity
  8
0
  6
SLD-Durchgehend
 62
     7
370
     0
100
AcDbLine
 10
187.7222972998
 20
19.1819029016
 30
0.0
 11
188.1652269908
 21
20.9152816591
 31
0.0
  0
LINE
  5
DE
330
1F
100
AcDbEntity
  8
0
  6
SLD-Durchgehend
 62
     7
370
     0
100
AcDbLine
 10
17.0
 20
26.75
 30
0.0
 11
69.0
 21
26.75
 31
0.0
  0
CIRCLE
  5
DF
330
1F
100
AcDbEntity
  8
0
  6
SLD-Durchgehend
 62
     7
370
     0
100
AcDbCircle
 10
10.0
 20
188.5
 30
0.0
 40
3.000000000000003
  0
CIRCLE
  5
E0
330
1F
100
AcDbEntity
  8
0
  6
SLD-Durchgehend
 62
     7
370
     0
100
AcDbCircle
 10
10.0
 20
108.5
 30
0.0
 40
3.000000000000003
  0
ARC
  5
E1
330
1F
100
AcDbEntity
  8
0
  6
SLD-Durchgehend
 62
     7
370
     0
100
AcDbCircle
 10
192.2166905884
 20
22.1936818339
 30
0.0
 40
9.466383935046267
100
AcDbArc
 50
27.5142747223
 51
199.3834076115
  0
ARC
  5
E2
330
1F
100
AcDbEntity
  8
0
  6
SLD-Durchgehend
 62
     7
370
     0
100
AcDbCircle
 10
193.3341692459
 20
24.5403819643
 30
0.0
 40
5.933065424569019
100
AcDbArc
 50
19.9717771487
 51
161.5451058776
  0
ARC
  5
E3
330
1F
100
AcDbEntity
  8
0
  6
SLD-Durchgehend
 62
     7
370
     0
100
AcDbCircle
 10
193.6015949771
 20
21.8804932252
 30
0.0
 40
8.003675602344138
100
AcDbArc
 50
339.3038849229
 51
17.0191257259
  0
CIRCLE
  5
E4
330
1F
100
AcDbEntity
  8
0
  6
SLD-Durchgehend
 62
     7
370
     0
100
AcDbCircle
 10
202.3866676737
 20
25.5286123403
 30
0.0
 40
0.6921638106894162
  0
ARC
  5
E5
330
1F
100
AcDbEntity
  8
0
  6
SLD-Durchgehend
 62
     7
370
     0
100
AcDbCircle
 10
193.6015949771
 20
21.8804932252
 30
0.0
 40
7.873675602344139
100
AcDbArc
 50
339.956359704
 51
14.9064582949
  0
ARC
  5
E6
330
1F
100
AcDbEntity
  8
0
  6
SLD-Durchgehend
 62
     7
370
     0
100
AcDbCircle
 10
193.3341692459
 20
24.5403819643
 30
0.0
 40
6.063065424569016
100
AcDbArc
 50
20.8348250605
 51
160.6576519015
  0
ARC
  5
E7
330
1F
100
AcDbEntity
  8
0
  6
SLD-Durchgehend
 62
     7
370
     0
100
AcDbCircle
 10
192.2166905884
 20
22.1936818339
 30
0.0
 40
9.336383935046278
100
AcDbArc
 50
28.8374327393
 51
198.8193368339
  0
MTEXT
  5
E8
330
1F
100
AcDbEntity
  8
0
  6
Continuous
 62
     7
370
     0
100
AcDbMText
 10
30.333368457
 20
8.977587849
 30
0.0
 40
3.0
 41
0.0
 71
     1
 72
     1
  1
01925600
  7
SLDTEXTSTYLE0
 73
     1
 44
1.0
  0
MTEXT
  5
E9
330
1F
100
AcDbEntity
  8
0
  6
Continuous
 62
     7
370
     0
100
AcDbMText
 10
72.5042038186
 20
12.4849420031
 30
0.0
 40
4.0
 41
0.0
 71
     1
 72
     1
  1
Vibrateur pneum. à piston
  7
SLDTEXTSTYLE0
 73
     1
 44
1.0
  0
MTEXT
  5
EA
330
1F
100
AcDbEntity
  8
0
  6
Continuous
 62
     7
370
     0
100
AcDbMText
 10
18.5009192524
 20
11.6424354296
 30
0.0
 40
2.0
 41
0.0
 71
     1
 72
     1
  1
Bestell Nr.: / Part no.: / No d`article:
  7
SLDTEXTSTYLE0
 73
     1
 44
1.0
  0
INSERT
  5
F4
330
1F
100
AcDbEntity
  8
0
  6
Continuous
 62
     7
370
     0
100
AcDbBlockReference
  2
SW_NOTE_3
 10
142.2177413053
 20
12.0976931256
 30
0.0
  0
MTEXT
  5
F5
330
1F
100
AcDbEntity
  8
0
  6
Continuous
 62
     7
370
     0
100
AcDbMText
 10
142.2177413053
 20
17.8281708005
 30
0.0
 40
1.8520833333
 41
0.0
 71
     1
 72
     1
  1
Fritz-Lenges-Straße 3,  55252 Mainz-Kastel
  7
SLDTEXTSTYLE0
 73
     1
 44
1.0
  0
INSERT
  5
FB
330
1F
100
AcDbEntity
  8
0
  6
Continuous
 62
     7
370
     0
100
AcDbBlockReference
  2
SW_NOTE_4
 10
142.2177413053
 20
18.0066254519
 30
0.0
  0
MTEXT
  5
FC
330
1F
100
AcDbEntity
  8
0
  6
Continuous
 62
     7
370
     0
100
AcDbMText
 10
202.0748866834
 20
25.8708309295
 30
0.0
 40
0.65
 41
0.0
 71
     1
 72
     1
  1
R
  7
SLDTEXTSTYLE0
 73
     1
 44
1.0
  0
MTEXT
  5
FD
330
1F
100
AcDbEntity
  8
0
  6
Continuous
 62
     7
370
     0
100
AcDbMText
 10
72.5042038186
 20
19.4879186679
 30
0.0
 40
4.0
 41
0.0
 71
     1
 72
     1
  1
Pneumatic linear vibrator
  7
SLDTEXTSTYLE0
 73
     1
 44
1.0
  0
MTEXT
  5
FE
330
1F
100
AcDbEntity
  8
0
  6
Continuous
 62
     7
370
     0
100
AcDbMText
 10
72.5042038186
 20
26.495794101
 30
0.0
 40
4.0
 41
0.0
 71
     1
 72
     1
  1
Druckluft-Kolbenvibrator
  7
SLDTEXTSTYLE0
 73
     1
 44
1.0
  0
MTEXT
  5
100
330
1F
100
AcDbEntity
  8
0
  6
Continuous
 62
     7
370
     0
100
AcDbMText
 10
72.5042038186
 20
35.9994003142
 30
0.0
 40
4.0
 41
0.0
 71
     1
 72
     1
  1
NTS 250 HF
  7
SLDTEXTSTYLE3
 73
     1
 44
1.0
  0
MTEXT
  5
101
330
1F
100
AcDbEntity
  8
0
  6
Continuous
 62
     7
370
     0
100
AcDbMText
 10
18.5009192524
 20
18.9862304695
 30
0.0
 40
2.0
 41
0.0
 71
     1
 72
     1
  1
Angebot Nr.: / Quotation no.: / Offre no.:
  7
SLDTEXTSTYLE0
 73
     1
 44
1.0
  0
MTEXT
  5
102
330
1F
100
AcDbEntity
  8
0
  6
Continuous
 62
     7
370
     0
100
AcDbMText
 10
20.29574253
 20
30.6803055821
 30
0.0
 40
2.5
 41
0.0
 71
     1
 72
     1
  1
tous droits réservés
  7
SLDTEXTSTYLE0
 73
     1
 44
1.0
  0
MTEXT
  5
103
330
1F
100
AcDbEntity
  8
0
  6
Continuous
 62
     7
370
     0
100
AcDbMText
 10
20.29574253
 20
34.503298427
 30
0.0
 40
2.5
 41
0.0
 71
     1
 72
     1
  1
all rights reserved
  7
SLDTEXTSTYLE0
 73
     1
 44
1.0
  0
MTEXT
  5
104
330
1F
100
AcDbEntity
  8
0
  6
Continuous
 62
     7
370
     0
100
AcDbMText
 10
20.29574253
 20
38.5651106905
 30
0.0
 40
2.5
 41
0.0
 71
     1
 72
     1
  1
alle Schutzrechte vorbehalten
  7
SLDTEXTSTYLE0
 73
     1
 44
1.0
  0
MTEXT
  5
105
330
1F
100
AcDbEntity
  8
0
  6
Continuous
 62
     7
370
     0
100
AcDbMText
 10
18.5009192524
 20
26.1817224987
 30
0.0
 40
2.0
 41
0.0
 71
     1
 72
     1
  1
Datum: / Date: / Date:
  7
SLDTEXTSTYLE0
 73
     1
 44
1.0
  0
MTEXT
  5
106
330
1F
100
AcDbEntity
  8
0
  6
Continuous
 62
     7
370
     0
100
AcDbMText
 10
30.333368457
 20
23.5036712568
 30
0.0
 40
3.0
 41
0.0
 71
     1
 72
     1
  1
19.01.22
  7
SLDTEXTSTYLE0
 73
     1
 44
1.0
  0
LINE
  5
107
330
1F
100
AcDbEntity
  8
0
  6
SLD-Durchgehend
 62
     7
370
    15
100
AcDbLine
 10
107.7212654951
 20
132.2086620968
 30
0.0
 11
107.7212654951
 21
151.4297928553
 31
0.0
  0
LINE
  5
108
330
1F
100
AcDbEntity
  8
0
  6
SLD-Durchgehend
 62
     7
370
    15
100
AcDbLine
 10
107.7212654951
 20
110.6297913831
 30
0.0
 11
107.7212654951
 21
115.2509208661
 31
0.0
  0
LINE
  5
109
330
1F
100
AcDbEntity
  8
0
  6
SLD-Durchgehend
 62
     7
370
    15
100
AcDbLine
 10
66.2212670746
 20
151.4297928553
 30
0.0
 11
66.2212670746
 21
110.6297913831
 31
0.0
  0
LINE
  5
10A
330
1F
100
AcDbEntity
  8
0
  6
SLD-Durchgehend
 62
     7
370
    15
100
AcDbLine
 10
107.7212654951
 20
85.2289404612
 30
0.0
 11
107.7212654951
 21
95.1297916364
 31
0.0
  0
LINE
  5
10B
330
1F
100
AcDbEntity
  8
0
  6
SLD-Durchgehend
 62
     7
370
    15
100
AcDbLine
 10
107.7212654951
 20
74.7297909003
 30
0.0
 11
107.7212654951
 21
84.2361999568
 31
0.0
  0
LINE
  5
10C
330
1F
100
AcDbEntity
  8
0
  6
SLD-Durchgehend
 62
     7
370
    15
100
AcDbLine
 10
66.2212670746
 20
95.1297916364
 30
0.0
 11
66.2212670746
 21
74.7297909003
 31
0.0
  0
LINE
  5
10D
330
1F
100
AcDbEntity
  8
0
  6
SLD-Durchgehend
 62
     7
370
    15
100
AcDbLine
 10
107.4212660047
 20
95.1297916364
 30
0.0
 11
107.4212660047
 21
95.3797902804
 31
0.0
  0
LINE
  5
10E
330
1F
100
AcDbEntity
  8
0
  6
SLD-Durchgehend
 62
     7
370
    15
100
AcDbLine
 10
107.4212660047
 20
110.3797908765
 30
0.0
 11
107.4212660047
 21
110.6297913831
 31
0.0
  0
LINE
  5
10F
330
1F
100
AcDbEntity
  8
0
  6
SLD-Durchgehend
 62
     7
370
    15
100
AcDbLine
 10
66.521266565
 20
110.6297913831
 30
0.0
 11
66.521266565
 21
110.3797908765
 31
0.0
  0
LINE
  5
110
330
1F
100
AcDbEntity
  8
0
  6
SLD-Durchgehend
 62
     7
370
    15
100
AcDbLine
 10
66.521266565
 20
95.3797902804
 30
0.0
 11
66.521266565
 21
95.1297916364
 31
0.0
  0
LINE
  5
111
330
1F
100
AcDbEntity
  8
0
  6
SLD-Durchgehend
 62
     7
370
    15
100
AcDbLine
 10
105.6712661836
 20
151.4297928553
 30
0.0
 11
105.6712661836
 21
151.6297887903
 31
0.0
  0
LINE
  5
112
330
1F
100
AcDbEntity
  8
0
  6
SLD-Durchgehend
 62
     7
370
    15
100
AcDbLine
 10
68.2712663862
 20
151.6297887903
 30
0.0
 11
68.2712663862
 21
151.4297928553
 31
0.0
  0
LINE
  5
113
330
1F
100
AcDbEntity
  8
0
  6
SLD-Durchgehend
 62
     7
370
    15
100
AcDbLine
 10
107.4212660047
 20
118.3297913414
 30
0.0
 11
107.5212658349
 21
118.3297913414
 31
0.0
  0
LINE
  5
114
330
1F
100
AcDbEntity
  8
0
  6
SLD-Durchgehend
 62
     7
370
    15
100
AcDbLine
 10
107.5212658349
 20
129.1297916215
 30
0.0
 11
107.4212660047
 21
129.1297916215
 31
0.0
  0
ARC
  5
115
330
1F
100
AcDbEntity
  8
0
  6
SLD-Durchgehend
 62
     7
370
    15
100
AcDbCircle
 10
107.4212662849
 20
128.9297909003
 30
0.0
 40
0.2000000000000171
100
AcDbArc
 50
90.0
 51
180.0
  0
ARC
  5
116
330
1F
100
AcDbEntity
  8
0
  6
SLD-Durchgehend
 62
     7
370
    15
100
AcDbCircle
 10
107.4212662849
 20
118.5297909003
 30
0.0
 40
0.2000000000000028
100
AcDbArc
 50
180.0
 51
270.0
  0
ARC
  5
117
330
1F
100
AcDbEntity
  8
0
  6
SLD-Durchgehend
 62
     7
370
    15
100
AcDbCircle
 10
107.5212662849
 20
118.5297909003
 30
0.0
 40
0.2000000000000028
100
AcDbArc
 50
270.0
 51
0.0
  0
ARC
  5
118
330
1F
100
AcDbEntity
  8
0
  6
SLD-Durchgehend
 62
     7
370
    15
100
AcDbCircle
 10
107.5212662849
 20
128.9297909003
 30
0.0
 40
0.2000000000000171
100
AcDbArc
 50
0.0
 51
90.0
  0
ARC
  5
119
330
1F
100
AcDbEntity
  8
0
  6
SLD-Durchgehend
 62
     7
370
    15
100
AcDbCircle
 10
107.0212662849
 20
128.6138174766
 30
0.0
 40
0.2000000000000281
100
AcDbArc
 50
274.7636416907
 51
0.0
  0
ARC
  5
11A
330
1F
100
AcDbEntity
  8
0
  6
SLD-Durchgehend
 62
     7
370
    15
100
AcDbCircle
 10
107.0212662849
 20
118.845764324
 30
0.0
 40
0.2000000000000028
100
AcDbArc
 50
0.0
 51
85.2363583093
  0
LINE
  5
11B
330
1F
100
AcDbEntity
  8
0
  6
SLD-Durchgehend
 62
     7
370
    15
100
AcDbLine
 10
107.037875891
 20
128.4145098072
 30
0.0
 11
106.4607818577
 21
128.3664163094
 31
0.0
  0
LINE
  5
11C
330
1F
100
AcDbEntity
  8
0
  6
SLD-Durchgehend
 62
     7
370
    15
100
AcDbLine
 10
106.4632778022
 20
119.0929580372
 30
0.0
 11
107.037875891
 21
119.0450731557
 31
0.0
  0
LINE
  5
11D
330
1F
100
AcDbEntity
  8
0
  6
SLD-Durchgehend
 62
     7
370
    15
100
AcDbLine
 10
66.3212669048
 20
110.3797908765
 30
0.0
 11
66.3212669048
 21
95.3797902804
 31
0.0
  0
ARC
  5
11E
330
1F
100
AcDbEntity
  8
0
  6
SLD-Durchgehend
 62
     7
370
    15
100
AcDbCircle
 10
75.4712662849
 20
216.1297909003
 30
0.0
 40
0.5
100
AcDbArc
 50
90.0
 51
180.0
  0
ARC
  5
11F
330
1F
100
AcDbEntity
  8
0
  6
SLD-Durchgehend
 62
     7
370
    15
100
AcDbCircle
 10
98.4712662849
 20
216.1297909003
 30
0.0
 40
0.5
100
AcDbArc
 50
0.0
 51
90.0
  0
LINE
  5
120
330
1F
100
AcDbEntity
  8
0
  6
SLD-Durchgehend
 62
     7
370
    15
100
AcDbLine
 10
98.9712663892
 20
206.6297884923
 30
0.0
 11
98.9712663892
 21
216.1297853928
 31
0.0
  0
LINE
  5
121
330
1F
100
AcDbEntity
  8
0
  6
SLD-Durchgehend
 62
     7
370
    15
100
AcDbLine
 10
98.9712663892
 20
198.629787181
 30
0.0
 11
98.9712663892
 21
204.6297844392
 31
0.0
  0
LINE
  5
122
330
1F
100
AcDbEntity
  8
0
  6
SLD-Durchgehend
 62
     7
370
    15
100
AcDbLine
 10
98.9712663892
 20
190.6297933203
 30
0.0
 11
98.9712663892
 21
196.6297905784
 31
0.0
  0
LINE
  5
123
330
1F
100
AcDbEntity
  8
0
  6
SLD-Durchgehend
 62
     7
370
    15
100
AcDbLine
 10
98.9712663892
 20
182.629792009
 30
0.0
 11
98.9712663892
 21
188.6297892671
 31
0.0
  0
LINE
  5
124
330
1F
100
AcDbEntity
  8
0
  6
SLD-Durchgehend
 62
     7
370
    15
100
AcDbLine
 10
98.9712663892
 20
173.1297876578
 30
0.0
 11
98.9712663892
 21
180.6297879558
 31
0.0
  0
LINE
  5
125
330
1F
100
AcDbEntity
  8
0
  6
SLD-Durchgehend
 62
     7
370
    15
100
AcDbLine
 10
74.9712661806
 20
216.1297853928
 30
0.0
 11
74.9712661806
 21
173.1297876578
 31
0.0
  0
ARC
  5
126
330
1F
100
AcDbEntity
  8
0
  6
SLD-Durchgehend
 62
     7
370
    15
100
AcDbCircle
 10
75.4712662849
 20
173.1297909003
 30
0.0
 40
0.5
100
AcDbArc
 50
180.0
 51
270.0
  0
ARC
  5
127
330
1F
100
AcDbEntity
  8
0
  6
SLD-Durchgehend
 62
     7
370
    15
100
AcDbCircle
 10
98.4712662849
 20
173.1297909003
 30
0.0
 40
0.5
100
AcDbArc
 50
270.0
 51
0.0
  0
LINE
  5
128
330
1F
100
AcDbEntity
  8
0
  6
SLD-Durchgehend
 62
     7
370
    15
100
AcDbLine
 10
97.9712662253
 20
204.6297844392
 30
0.0
 11
97.9712662253
 21
206.6297884923
 31
0.0
  0
LINE
  5
129
330
1F
100
AcDbEntity
  8
0
  6
SLD-Durchgehend
 62
     7
370
    15
100
AcDbLine
 10
97.9712662253
 20
196.6297905784
 30
0.0
 11
97.9712662253
 21
198.629787181
 31
0.0
  0
LINE
  5
12A
330
1F
100
AcDbEntity
  8
0
  6
SLD-Durchgehend
 62
     7
370
    15
100
AcDbLine
 10
97.9712662253
 20
188.6297892671
 30
0.0
 11
97.9712662253
 21
190.6297933203
 31
0.0
  0
LINE
  5
12B
330
1F
100
AcDbEntity
  8
0
  6
SLD-Durchgehend
 62
     7
370
    15
100
AcDbLine
 10
97.9712662253
 20
180.6297879558
 30
0.0
 11
97.9712662253
 21
182.629792009
 31
0.0
  0
LINE
  5
12C
330
1F
100
AcDbEntity
  8
0
  6
SLD-Durchgehend
 62
     7
370
    15
100
AcDbLine
 10
107.7212654951
 20
171.6297920686
 30
0.0
 11
106.7212671939
 21
172.6297940951
 31
0.0
  0
LINE
  5
12D
330
1F
100
AcDbEntity
  8
0
  6
SLD-Durchgehend
 62
     7
370
    15
100
AcDbLine
 10
67.2212653759
 20
172.6297940951
 30
0.0
 11
66.2212670746
 21
171.6297920686
 31
0.0
  0
LINE
  5
12E
330
1F
100
AcDbEntity
  8
0
  6
SLD-Durchgehend
 62
     7
370
    15
100
AcDbLine
 10
107.7212654951
 20
151.6297887903
 30
0.0
 11
107.7212654951
 21
171.6297920686
 31
0.0
  0
LINE
  5
12F
330
1F
100
AcDbEntity
  8
0
  6
SLD-Durchgehend
 62
     7
370
    15
100
AcDbLine
 10
66.2212670746
 20
171.6297920686
 30
0.0
 11
66.2212670746
 21
151.6297887903
 31
0.0
  0
LINE
  5
130
330
1F
100
AcDbEntity
  8
0
  6
SLD-Durchgehend
 62
     7
370
    15
100
AcDbLine
 10
72.9212659377
 20
82.5955597576
 30
0.0
 11
75.4212663475
 21
81.4297906947
 31
0.0
  0
LINE
  5
131
330
1F
100
AcDbEntity
  8
0
  6
SLD-Durchgehend
 62
     7
370
    15
100
AcDbLine
 10
72.9319873232
 20
81.4297906947
 30
0.0
 11
75.4212663475
 21
81.4297906947
 31
0.0
  0
LINE
  5
132
330
1F
100
AcDbEntity
  8
0
  6
SLD-Durchgehend
 62
     7
370
    15
100
AcDbLine
 10
72.9149161804
 20
82.5925990831
 30
0.0
 11
72.9212659377
 21
82.5955597576
 31
0.0
  0
LINE
  5
133
330
1F
100
AcDbEntity
  8
0
  6
SLD-Durchgehend
 62
     7
370
    15
100
AcDbLine
 10
75.4212663475
 20
81.4297906947
 30
0.0
 11
75.4212663475
 21
75.4297908754
 31
0.0
  0
LINE
  5
134
330
1F
100
AcDbEntity
  8
0
  6
SLD-Durchgehend
 62
     7
370
    15
100
AcDbLine
 10
73.8118310425
 20
75.4297908754
 30
0.0
 11
75.4212663475
 21
75.4297908754
 31
0.0
  0
LINE
  5
135
330
1F
100
AcDbEntity
  8
0
  6
SLD-Durchgehend
 62
     7
370
    15
100
AcDbLine
 10
92.0212660882
 20
81.4297906947
 30
0.0
 11
92.9638492841
 21
81.8693246585
 31
0.0
  0
LINE
  5
136
330
1F
100
AcDbEntity
  8
0
  6
SLD-Durchgehend
 62
     7
370
    15
100
AcDbLine
 10
92.0212660882
 20
81.4297906947
 30
0.0
 11
93.0131823722
 21
81.4297906947
 31
0.0
  0
LINE
  5
137
330
1F
100
AcDbEntity
  8
0
  6
SLD-Durchgehend
 62
     7
370
    15
100
AcDbLine
 10
92.0212660882
 20
75.4297908754
 30
0.0
 11
92.0212660882
 21
81.4297906947
 31
0.0
  0
LINE
  5
138
330
1F
100
AcDbEntity
  8
0
  6
SLD-Durchgehend
 62
     7
370
    15
100
AcDbLine
 10
92.0212660882
 20
75.4297908754
 30
0.0
 11
94.612708405
 21
75.4297908754
 31
0.0
  0
LINE
  5
139
330
1F
100
AcDbEntity
  8
0
  6
SLD-Durchgehend
 62
     7
370
    15
100
AcDbLine
 10
88.8212662854
 20
89.4297910747
 30
0.0
 11
88.8212662854
 21
75.4297908754
 31
0.0
  0
LINE
  5
13A
330
1F
100
AcDbEntity
  8
0
  6
SLD-Durchgehend
 62
     7
370
    15
100
AcDbLine
 10
83.7212662178
 20
92.4941804152
 30
0.0
 11
88.8212662854
 21
89.4297910747
 31
0.0
  0
LINE
  5
13B
330
1F
100
AcDbEntity
  8
0
  6
SLD-Durchgehend
 62
     7
370
    15
100
AcDbLine
 10
78.6212664995
 20
89.4297910747
 30
0.0
 11
83.7212662178
 21
92.4941804152
 31
0.0
  0
LINE
  5
13C
330
1F
100
AcDbEntity
  8
0
  6
SLD-Durchgehend
 62
     7
370
    15
100
AcDbLine
 10
78.6212664995
 20
75.4297908754
 30
0.0
 11
78.6212664995
 21
89.4297910747
 31
0.0
  0
LINE
  5
13D
330
1F
100
AcDbEntity
  8
0
  6
SLD-Durchgehend
 62
     7
370
    15
100
AcDbLine
 10
78.6212664995
 20
75.4297908754
 30
0.0
 11
75.4212663475
 21
75.4297908754
 31
0.0
  0
LINE
  5
13E
330
1F
100
AcDbEntity
  8
0
  6
SLD-Durchgehend
 62
     7
370
    15
100
AcDbLine
 10
92.0212660882
 20
75.4297908754
 30
0.0
 11
88.8212662854
 21
75.4297908754
 31
0.0
  0
LINE
  5
13F
330
1F
100
AcDbEntity
  8
0
  6
SLD-Durchgehend
 62
     7
370
    15
100
AcDbLine
 10
85.6944658759
 20
93.429790799
 30
0.0
 11
78.7681081298
 21
93.429790799
 31
0.0
  0
LINE
  5
140
330
1F
100
AcDbEntity
  8
0
  6
SLD-Durchgehend
 62
     7
370
    15
100
AcDbLine
 10
78.6212664995
 20
89.4297910747
 30
0.0
 11
88.8212662854
 21
89.4297910747
 31
0.0
  0
LINE
  5
141
330
1F
100
AcDbEntity
  8
0
  6
SLD-Durchgehend
 62
     7
370
    15
100
AcDbLine
 10
78.6212664995
 20
75.4297908754
 30
0.0
 11
88.8212662854
 21
75.4297908754
 31
0.0
  0
LINE
  5
142
330
1F
100
AcDbEntity
  8
0
  6
SLD-Durchgehend
 62
     7
370
    15
100
AcDbLine
 10
107.7212654951
 20
110.6297913831
 30
0.0
 11
66.2212670746
 21
110.6297913831
 31
0.0
  0
LINE
  5
143
330
1F
100
AcDbEntity
  8
0
  6
SLD-Durchgehend
 62
     7
370
    15
100
AcDbLine
 10
106.2212661806
 20
120.2297899764
 30
0.0
 11
106.2212661806
 21
127.2297892612
 31
0.0
  0
SPLINE
  5
144
330
1F
100
AcDbEntity
  8
0
  6
SLD-Durchgehend
 62
     7
370
    15
100
AcDbSpline
210
0.0
220
0.0
230
1.0
 70
     8
 71
     3
 72
    14
 73
    10
 74
     0
 42
0.000000001
 43
0.00000001
 40
0.0
 40
0.0
 40
0.0
 40
0.0
 40
0.1479022448876415
 40
0.3001809577229878
 40
0.4480439730743208
 40
0.6001933333393547
 40
0.7473586788831769
 40
0.8994187491764086
 40
1.0
 40
1.0
 40
1.0
 40
1.0
 10
106.2212661805787
 20
120.2297899764381
 30
0.0
 10
106.3072979662006
 20
119.8027606794435
 30
0.0
 10
106.4819072415516
 20
118.9360661715611
 30
0.0
 10
106.795320836262
 20
117.8168573467217
 30
0.0
 10
107.1054729253381
 20
116.8517069096939
 30
0.0
 10
107.3806431604264
 20
116.0914730350088
 30
0.0
 10
107.5898967640649
 20
115.5525286077745
 30
0.0
 10
107.7083177598321
 20
115.2613228073268
 30
0.0
 10
107.7114022705964
 20
115.2538828519434
 30
0.0
 10
107.7126302722134
 20
115.2509208660923
 30
0.0
  0
SPLINE
  5
145
330
1F
100
AcDbEntity
  8
0
  6
SLD-Durchgehend
 62
     7
370
    15
100
AcDbSpline
210
0.0
220
0.0
230
1.0
 70
     8
 71
     3
 72
    15
 73
    11
 74
     0
 42
0.000000001
 43
0.00000001
 40
0.0
 40
0.0
 40
0.0
 40
0.0
 40
0.0366500513852203
 40
0.1781210587572701
 40
0.3110714760767356
 40
0.4475702218233821
 40
0.5866283705165042
 40
0.7292444222796927
 40
0.8630402609679119
 40
1.0
 40
1.0
 40
1.0
 40
1.0
 10
107.7126302722134
 20
132.2086620968186
 30
0.0
 10
107.715184938094
 20
132.214912234614
 30
0.0
 10
107.7276007403701
 20
132.245288212803
 30
0.0
 10
107.6594966682209
 20
132.0791625268182
 30
0.0
 10
107.5139774008322
 20
131.7140834825877
 30
0.0
 10
107.2975987050823
 20
131.1440376807151
 30
0.0
 10
107.030316036569
 20
130.3840280201529
 30
0.0
 10
106.7424499087534
 20
129.4610973477881
 30
0.0
 10
106.4571004933705
 20
128.4094633073449
 30
0.0
 10
106.3004876486169
 20
127.6260653952072
 30
0.0
 10
106.2212661805787
 20
127.2297892611824
 30
0.0
  0
LINE
  5
146
330
1F
100
AcDbEntity
  8
0
  6
SLD-Durchgehend
 62
     7
370
    15
100
AcDbLine
 10
107.7212654951
 20
151.4297928553
 30
0.0
 11
66.2212670746
 21
151.4297928553
 31
0.0
  0
LINE
  5
147
330
1F
100
AcDbEntity
  8
0
  6
SLD-Durchgehend
 62
     7
370
    15
100
AcDbLine
 10
107.7212654951
 20
95.1297916364
 30
0.0
 11
66.2212670746
 21
95.1297916364
 31
0.0
  0
SPLINE
  5
148
330
1F
100
AcDbEntity
  8
0
  6
SLD-Durchgehend
 62
     7
370
    15
100
AcDbSpline
210
0.0
220
0.0
230
1.0
 70
     8
 71
     3
 72
    12
 73
     8
 74
     0
 42
0.000000001
 43
0.00000001
 40
0.0
 40
0.0
 40
0.0
 40
0.0
 40
0.2147951715743289
 40
0.4295890518692324
 40
0.6444219080164837
 40
0.8592803873582486
 40
1.0
 40
1.0
 40
1.0
 40
1.0
 10
107.7152417007127
 20
84.72979067679275
 30
0.0
 10
107.7153776349305
 20
84.6736069330263
 30
0.0
 10
107.7156495025488
 20
84.56123978325202
 30
0.0
 10
107.7175668513229
 20
84.411134212692
 30
0.0
 10
107.7196381683169
 20
84.29913892756325
 30
0.0
 10
107.7211223239899
 20
84.23566087508473
 30
0.0
 10
107.7211154704883
 20
84.23604710626034
 30
0.0
 10
107.721112758223
 20
84.23619995679486
 30
0.0
  0
SPLINE
  5
149
330
1F
100
AcDbEntity
  8
0
  6
SLD-Durchgehend
 62
     7
370
    15
100
AcDbSpline
210
0.0
220
0.0
230
1.0
 70
     8
 71
     3
 72
    13
 73
     9
 74
     0
 42
0.000000001
 43
0.00000001
 40
0.0
 40
0.0
 40
0.0
 40
0.0
 40
0.0066802845970287
 40
0.2212899387421557
 40
0.4359001629175885
 40
0.6505647214994821
 40
0.8652526327470392
 40
1.0
 40
1.0
 40
1.0
 40
1.0
 10
107.7212468686738
 20
85.22894046123851
 30
0.0
 10
107.7212532665626
 20
85.22922326402538
 30
0.0
 10
107.7214652019065
 20
85.23859133966235
 30
0.0
 10
107.7206566304647
 20
85.2047621802238
 30
0.0
 10
107.718924442324
 20
85.12553749047173
 30
0.0
 10
107.7167757684756
 20
84.99525675117539
 30
0.0
 10
107.7154355564568
 20
84.85622708857643
 30
0.0
 10
107.7152956505008
 20
84.76497775704475
 30
0.0
 10
107.7152417007127
 20
84.72979067679273
 30
0.0
  0
SPLINE
  5
14A
330
1F
100
AcDbEntity
  8
0
  6
SLD-Durchgehend
 62
     7
370
     0
100
AcDbSpline
210
0.0
220
0.0
230
1.0
 70
     8
 71
     3
 72
    48
 73
    44
 74
     0
 42
0.000000001
 43
0.00000001
 40
0.0
 40
0.0
 40
0.0
 40
0.0
 40
0.0624999999999998
 40
0.0624999999999998
 40
0.0937499999999997
 40
0.0937499999999997
 40
0.1249999999999996
 40
0.1249999999999996
 40
0.1874999999999995
 40
0.1874999999999995
 40
0.2499999999999994
 40
0.2499999999999994
 40
0.2812499999999994
 40
0.2812499999999994
 40
0.3124999999999993
 40
0.3124999999999993
 40
0.3437499999999993
 40
0.3437499999999993
 40
0.3749999999999992
 40
0.3749999999999992
 40
0.4374999999999991
 40
0.4374999999999991
 40
0.4687499999999991
 40
0.4687499999999991
 40
0.4999999999999991
 40
0.4999999999999991
 40
0.5312499999999992
 40
0.5312499999999992
 40
0.5624999999999993
 40
0.5624999999999993
 40
0.6249999999999994
 40
0.6249999999999994
 40
0.6874999999999996
 40
0.6874999999999996
 40
0.7499999999999996
 40
0.7499999999999996
 40
0.8124999999999997
 40
0.8124999999999997
 40
0.8749999999999998
 40
0.8749999999999998
 40
0.9374999999999999
 40
0.9374999999999999
 40
1.0
 40
1.0
 40
1.0
 40
1.0
 10
86.97126628488913
 20
93.22338196534548
 30
0.0
 10
86.34569013466344
 20
93.33745655453862
 30
0.0
 10
85.71618447671071
 20
93.43227247784714
 30
0.0
 10
84.76719397971702
 20
93.55160392765154
 30
0.0
 10
84.4490264630577
 20
93.58725735364916
 30
0.0
 10
83.817046161004
 20
93.64797553290846
 30
0.0
 10
83.50301190760912
 20
93.67310164703648
 30
0.0
 10
82.56672641649612
 20
93.73072844937671
 30
0.0
 10
81.95027802607588
 20
93.74571481623852
 30
0.0
 10
80.7329358889948
 20
93.71354474046896
 30
0.0
 10
80.13203811734712
 20
93.66668597511806
 30
0.0
 10
79.24278822164673
 20
93.53041547844852
 30
0.0
 10
78.94704873467178
 20
93.47347613390748
 30
0.0
 10
78.37076067256652
 20
93.3349229106604
 30
0.0
 10
78.08932876095685
 20
93.25329689545482
 30
0.0
 10
77.54057711976128
 20
93.06114512011929
 30
0.0
 10
77.27325100197449
 20
92.95064853938871
 30
0.0
 10
76.75382311879764
 20
92.69481150746894
 30
0.0
 10
76.50148397313757
 20
92.54886980236057
 30
0.0
 10
75.79149665824981
 20
92.0631060739943
 30
0.0
 10
75.37490584667094
 20
91.66909897397704
 30
0.0
 10
74.8283461923215
 20
90.96875734430648
 30
0.0
 10
74.66030249403057
 20
90.71861944273411
 30
0.0
 10
74.35632322585238
 20
90.19999930049835
 30
0.0
 10
74.21903601530079
 20
89.92982902495002
 30
0.0
 10
73.96965606086873
 20
89.37009188681682
 30
0.0
 10
73.8571260143244
 20
89.07901489608975
 30
0.0
 10
73.65718214981986
 20
88.48888870990262
 30
0.0
 10
73.569451345806
 20
88.1895516939542
 30
0.0
 10
73.33651240283368
 20
87.28064156728212
 30
0.0
 10
73.22123776281553
 20
86.66025478566189
 30
0.0
 10
73.0486618963631
 20
85.39750327362408
 30
0.0
 10
72.99188597914632
 20
84.75503851510085
 30
0.0
 10
72.92341211346542
 20
83.48012388179956
 30
0.0
 10
72.91121874361679
 20
82.84364514039355
 30
0.0
 10
72.9195239043814
 20
81.57214968439247
 30
0.0
 10
72.93903294402817
 20
80.93708846310263
 30
0.0
 10
73.01421319211212
 20
79.66856565903615
 30
0.0
 10
73.07007953005134
 20
79.03511399829432
 30
0.0
 10
73.23194409972383
 20
77.77037330847149
 30
0.0
 10
73.33824680674999
 20
77.13864286274249
 30
0.0
 10
73.6175111175916
 20
75.90998429460241
 30
0.0
 10
73.79016775386391
 20
75.30952857155091
 30
0.0
 10
74.01509373825935
 20
74.72979090031
 30
0.0
  0
LINE
  5
14B
330
1F
100
AcDbEntity
  8
0
  6
SLD-Durchgehend
 62
     7
370
    15
100
AcDbLine
 10
74.015094057
 20
74.7297909003
 30
0.0
 11
66.2212670746
 21
74.7297909003
 31
0.0
  0
LINE
  5
14C
330
1F
100
AcDbEntity
  8
0
  6
SLD-Durchgehend
 62
     7
370
    15
100
AcDbLine
 10
107.7212654951
 20
74.7297909003
 30
0.0
 11
97.2941779497
 21
74.7297909003
 31
0.0
  0
LINE
  5
14D
330
1F
100
AcDbEntity
  8
0
  6
SLD-Durchgehend
 62
     7
370
    15
100
AcDbLine
 10
97.2941779497
 20
89.729790565
 30
0.0
 11
97.2941779497
 21
74.7297909003
 31
0.0
  0
LINE
  5
14E
330
1F
100
AcDbEntity
  8
0
  6
SLD-Durchgehend
 62
     7
370
    15
100
AcDbLine
 10
93.6068953912
 20
89.729790565
 30
0.0
 11
97.2941779497
 21
89.729790565
 31
0.0
  0
SPLINE
  5
14F
330
1F
100
AcDbEntity
  8
0
  6
SLD-Durchgehend
 62
     7
370
     0
100
AcDbSpline
210
0.0
220
0.0
230
1.0
 70
     8
 71
     3
 72
    18
 73
    14
 74
     0
 42
0.000000001
 43
0.00000001
 40
0.0
 40
0.0
 40
0.0
 40
0.0
 40
0.125
 40
0.125
 40
0.2499999999999999
 40
0.2499999999999999
 40
0.3749999999999999
 40
0.3749999999999999
 40
0.4999999999999999
 40
0.4999999999999999
 40
0.7499999999999999
 40
0.7499999999999999
 40
1.0
 40
1.0
 40
1.0
 40
1.0
 10
93.60689520552664
 20
89.72979090031019
 30
0.0
 10
93.49446018160175
 20
90.03959935405997
 30
0.0
 10
93.32747052937479
 20
90.3191178171716
 30
0.0
 10
92.91503625754929
 20
90.82627133334017
 30
0.0
 10
92.67873952479866
 20
91.04444061367927
 30
0.0
 10
92.16700487956764
 20
91.43709129290035
 30
0.0
 10
91.89079632870754
 20
91.61094996085664
 30
0.0
 10
91.32518410377222
 20
91.92008576296371
 30
0.0
 10
91.03347783169897
 20
92.05691427513338
 30
0.0
 10
90.13826376217213
 20
92.43037596509632
 30
0.0
 10
89.5110185927265
 20
92.63148568745919
 30
0.0
 10
88.24955737327278
 20
92.96917249802488
 30
0.0
 10
87.6124879878603
 20
93.10645439014655
 30
0.0
 10
86.97126628488913
 20
93.22338196534548
 30
0.0
  0
LINE
  5
150
330
1F
100
AcDbEntity
  8
0
  6
SLD-Durchgehend
 62
     7
370
    15
100
AcDbLine
 10
92.9751066457
 20
83.3231480684
 30
0.0
 11
92.9751066457
 21
81.7446219627
 31
0.0
  0
LINE
  5
151
330
1F
100
AcDbEntity
  8
0
  6
SLD-Durchgehend
 62
     7
370
    15
100
AcDbLine
 10
97.2941779497
 20
74.7297909003
 30
0.0
 11
94.521266498
 21
74.7297908877
 31
0.0
  0
SPLINE
  5
152
330
1F
100
AcDbEntity
  8
0
  6
SLD-Durchgehend
 62
     7
370
     0
100
AcDbSpline
210
0.0
220
0.0
230
1.0
 70
     8
 71
     3
 72
     8
 73
     4
 74
     0
 42
0.000000001
 43
0.00000001
 40
0.3760943221600144
 40
0.3760943221600144
 40
0.3760943221600144
 40
0.3760943221600144
 40
0.4655503411592212
 40
0.4655503411592212
 40
0.4655503411592212
 40
0.4655503411592212
 10
92.97510683562642
 20
83.32314781904347
 30
0.0
 10
93.18455434572473
 20
85.77183005039726
 30
0.0
 10
94.20481355023344
 20
88.0822601632365
 30
0.0
 10
93.60689520552299
 20
89.7297909003203
 30
0.0
  0
SPLINE
  5
153
330
1F
100
AcDbEntity
  8
0
  6
SLD-Durchgehend
 62
     7
370
     0
100
AcDbSpline
210
0.0
220
0.0
230
1.0
 70
     8
 71
     3
 72
     8
 73
     4
 74
     0
 42
0.000000001
 43
0.00000001
 40
0.2597303556295993
 40
0.2597303556295993
 40
0.2597303556295993
 40
0.2597303556295993
 40
0.3570393375435178
 40
0.3570393375435178
 40
0.3570393375435178
 40
0.3570393375435178
 10
94.52126628488676
 20
74.72979090030996
 30
0.0
 10
95.08233949181997
 20
76.30963719345033
 30
0.0
 10
93.24290271681066
 20
79.0428062802997
 30
0.0
 10
92.97510683562653
 20
81.74462175616428
 30
0.0
  0
LINE
  5
154
330
1F
100
AcDbEntity
  8
0
  6
SLD-Durchgehend
 62
     7
370
    15
100
AcDbLine
 10
73.9806295338
 20
74.7297909003
 30
0.0
 11
94.521266498
 21
74.7297909003
 31
0.0
  0
LINE
  5
155
330
1F
100
AcDbEntity
  8
0
  6
SLD-Durchgehend
 62
     7
370
    15
100
AcDbLine
 10
107.2212663445
 20
123.7297896188
 30
0.0
 11
107.2212663445
 21
128.9297919613
 31
0.0
  0
LINE
  5
156
330
1F
100
AcDbEntity
  8
0
  6
SLD-Durchgehend
 62
     7
370
    15
100
AcDbLine
 10
107.2212663445
 20
118.5297910016
 30
0.0
 11
107.2212663445
 21
123.7297896188
 31
0.0
  0
LINE
  5
157
330
1F
100
AcDbEntity
  8
0
  6
SLD-Durchgehend
 62
     7
370
    15
100
AcDbLine
 10
107.7212654951
 20
128.9297919613
 30
0.0
 11
107.7212654951
 21
118.5297910016
 31
0.0
  0
ARC
  5
158
330
1F
100
AcDbEntity
  8
0
  6
SLD-Durchgehend
 62
     7
370
    15
100
AcDbCircle
 10
98.1132398044
 20
110.0147117405
 30
0.0
 40
9.508983104354245
100
AcDbArc
 50
359.1870094353
 51
2.2003021452
  0
ARC
  5
159
330
1F
100
AcDbEntity
  8
0
  6
SLD-Durchgehend
 62
     7
370
    15
100
AcDbCircle
 10
104.9926333153
 20
110.0353942371
 30
0.0
 40
2.627289449110676
100
AcDbArc
 50
356.6046016183
 51
7.5322596489
  0
LINE
  5
15A
330
1F
100
AcDbEntity
  8
0
  6
SLD-Durchgehend
 62
     7
370
    15
100
AcDbLine
 10
107.6153107885
 20
109.8797898632
 30
0.0
 11
107.6153107885
 21
95.8797912937
 31
0.0
  0
ARC
  5
15B
330
1F
100
AcDbEntity
  8
0
  6
SLD-Durchgehend
 62
     7
370
    15
100
AcDbCircle
 10
103.9416852487
 20
95.7621436078
 30
0.0
 40
3.675508887786761
100
AcDbArc
 50
354.0288709784
 51
1.8342677544
  0
LINE
  5
15C
330
1F
100
AcDbEntity
  8
0
  6
SLD-Durchgehend
 62
     7
370
    15
100
AcDbLine
 10
66.3212669048
 20
95.3797902804
 30
0.0
 11
107.5972524437
 21
95.3797902804
 31
0.0
  0
ARC
  5
15D
330
1F
100
AcDbEntity
  8
0
  6
SLD-Durchgehend
 62
     7
370
    15
100
AcDbCircle
 10
101.1075268722
 20
95.7086170771
 30
0.0
 40
6.515987543991496
100
AcDbArc
 50
357.1073619432
 51
1.5053264763
  0
LINE
  5
15E
330
1F
100
AcDbEntity
  8
0
  6
SLD-Durchgehend
 62
     7
370
    15
100
AcDbLine
 10
107.621265665
 20
109.8797898632
 30
0.0
 11
107.621265665
 21
95.8797912937
 31
0.0
  0
LINE
  5
15F
330
1F
100
AcDbEntity
  8
0
  6
SLD-Durchgehend
 62
     7
370
    15
100
AcDbLine
 10
66.3212669048
 20
110.3797908765
 30
0.0
 11
107.5972524437
 21
110.3797908765
 31
0.0
  0
LINE
  5
160
330
1F
100
AcDbEntity
  8
0
  6
SLD-Durchgehend
 62
     7
370
    15
100
AcDbLine
 10
107.5972524437
 20
110.3797908765
 30
0.0
 11
107.6152120683
 21
110.3797908765
 31
0.0
  0
LINE
  5
161
330
1F
100
AcDbEntity
  8
0
  6
SLD-Durchgehend
 62
     7
370
    15
100
AcDbLine
 10
107.6152120683
 20
95.3797902804
 30
0.0
 11
107.5972524437
 21
95.3797902804
 31
0.0
  0
LINE
  5
162
330
1F
100
AcDbEntity
  8
0
  6
SLD-Durchgehend
 62
     7
370
    15
100
AcDbLine
 10
86.9712662849
 20
216.6297938567
 30
0.0
 11
98.4712663072
 21
216.6297938567
 31
0.0
  0
LINE
  5
163
330
1F
100
AcDbEntity
  8
0
  6
SLD-Durchgehend
 62
     7
370
    15
100
AcDbLine
 10
75.4712662625
 20
216.6297938567
 30
0.0
 11
86.9712662849
 21
216.6297938567
 31
0.0
  0
LINE
  5
164
330
1F
100
AcDbEntity
  8
0
  6
SLD-Durchgehend
 62
     7
370
    15
100
AcDbLine
 10
86.9712662849
 20
182.629792009
 30
0.0
 11
98.9712663892
 21
182.629792009
 31
0.0
  0
LINE
  5
165
330
1F
100
AcDbEntity
  8
0
  6
SLD-Durchgehend
 62
     7
370
    15
100
AcDbLine
 10
86.9712662849
 20
180.6297879558
 30
0.0
 11
86.9712662849
 21
182.629792009
 31
0.0
  0
LINE
  5
166
330
1F
100
AcDbEntity
  8
0
  6
SLD-Durchgehend
 62
     7
370
    15
100
AcDbLine
 10
86.9712662849
 20
180.6297879558
 30
0.0
 11
98.9712663892
 21
180.6297879558
 31
0.0
  0
LINE
  5
167
330
1F
100
AcDbEntity
  8
0
  6
SLD-Durchgehend
 62
     7
370
    15
100
AcDbLine
 10
86.9712662849
 20
188.6297892671
 30
0.0
 11
98.9712663892
 21
188.6297892671
 31
0.0
  0
LINE
  5
168
330
1F
100
AcDbEntity
  8
0
  6
SLD-Durchgehend
 62
     7
370
    15
100
AcDbLine
 10
86.9712662849
 20
190.6297933203
 30
0.0
 11
98.9712663892
 21
190.6297933203
 31
0.0
  0
LINE
  5
169
330
1F
100
AcDbEntity
  8
0
  6
SLD-Durchgehend
 62
     7
370
    15
100
AcDbLine
 10
86.9712662849
 20
190.6297933203
 30
0.0
 11
86.9712662849
 21
188.6297892671
 31
0.0
  0
LINE
  5
16A
330
1F
100
AcDbEntity
  8
0
  6
SLD-Durchgehend
 62
     7
370
    15
100
AcDbLine
 10
86.9712662849
 20
196.6297905784
 30
0.0
 11
98.9712663892
 21
196.6297905784
 31
0.0
  0
LINE
  5
16B
330
1F
100
AcDbEntity
  8
0
  6
SLD-Durchgehend
 62
     7
370
    15
100
AcDbLine
 10
86.9712662849
 20
198.629787181
 30
0.0
 11
98.9712663892
 21
198.629787181
 31
0.0
  0
LINE
  5
16C
330
1F
100
AcDbEntity
  8
0
  6
SLD-Durchgehend
 62
     7
370
    15
100
AcDbLine
 10
86.9712662849
 20
198.629787181
 30
0.0
 11
86.9712662849
 21
196.6297905784
 31
0.0
  0
LINE
  5
16D
330
1F
100
AcDbEntity
  8
0
  6
SLD-Durchgehend
 62
     7
370
    15
100
AcDbLine
 10
86.9712662849
 20
204.6297844392
 30
0.0
 11
98.9712663892
 21
204.6297844392
 31
0.0
  0
LINE
  5
16E
330
1F
100
AcDbEntity
  8
0
  6
SLD-Durchgehend
 62
     7
370
    15
100
AcDbLine
 10
86.9712662849
 20
206.6297884923
 30
0.0
 11
98.9712663892
 21
206.6297884923
 31
0.0
  0
LINE
  5
16F
330
1F
100
AcDbEntity
  8
0
  6
SLD-Durchgehend
 62
     7
370
    15
100
AcDbLine
 10
86.9712662849
 20
206.6297884923
 30
0.0
 11
86.9712662849
 21
204.6297844392
 31
0.0
  0
LINE
  5
170
330
1F
100
AcDbEntity
  8
0
  6
SLD-Durchgehend
 62
     7
370
    15
100
AcDbLine
 10
79.4712664525
 20
220.6297870618
 30
0.0
 11
86.9712662849
 21
220.6297870618
 31
0.0
  0
LINE
  5
171
330
1F
100
AcDbEntity
  8
0
  6
SLD-Durchgehend
 62
     7
370
    15
100
AcDbLine
 10
86.9712662849
 20
220.6297870618
 30
0.0
 11
94.4712661172
 21
220.6297870618
 31
0.0
  0
ARC
  5
172
330
1F
100
AcDbEntity
  8
0
  6
SLD-Durchgehend
 62
     7
370
    15
100
AcDbCircle
 10
78.4712662849
 20
217.1297909003
 30
0.0
 40
0.5
100
AcDbArc
 50
270.0
 51
0.0
  0
ARC
  5
173
330
1F
100
AcDbEntity
  8
0
  6
SLD-Durchgehend
 62
     7
370
    15
100
AcDbCircle
 10
95.4712662849
 20
217.1297909003
 30
0.0
 40
0.5
100
AcDbArc
 50
180.0
 51
270.0
  0
ARC
  5
174
330
1F
100
AcDbEntity
  8
0
  6
SLD-Durchgehend
 62
     7
370
    15
100
AcDbCircle
 10
79.4712662849
 20
220.1297909003
 30
0.0
 40
0.5
100
AcDbArc
 50
90.0
 51
180.0
  0
LINE
  5
175
330
1F
100
AcDbEntity
  8
0
  6
SLD-Durchgehend
 62
     7
370
    15
100
AcDbLine
 10
78.9712659049
 20
217.1297874194
 30
0.0
 11
78.9712659049
 21
220.1297934991
 31
0.0
  0
ARC
  5
176
330
1F
100
AcDbEntity
  8
0
  6
SLD-Durchgehend
 62
     7
370
    15
100
AcDbCircle
 10
94.4712662849
 20
220.1297909003
 30
0.0
 40
0.5
100
AcDbArc
 50
0.0
 51
90.0
  0
LINE
  5
177
330
1F
100
AcDbEntity
  8
0
  6
SLD-Durchgehend
 62
     7
370
    15
100
AcDbLine
 10
94.9712666649
 20
220.1297934991
 30
0.0
 11
94.9712666649
 21
217.1297874194
 31
0.0
  0
LINE
  5
178
330
1F
100
AcDbEntity
  8
0
  6
SLD-Durchgehend
 62
     7
370
    15
100
AcDbLine
 10
86.9712662849
 20
171.6297920686
 30
0.0
 11
66.2212670746
 21
171.6297920686
 31
0.0
  0
LINE
  5
179
330
1F
100
AcDbEntity
  8
0
  6
SLD-Durchgehend
 62
     7
370
    15
100
AcDbLine
 10
107.7212654951
 20
171.6297920686
 30
0.0
 11
86.9712662849
 21
171.6297920686
 31
0.0
  0
LINE
  5
17A
330
1F
100
AcDbEntity
  8
0
  6
SLD-Durchgehend
 62
     7
370
    15
100
AcDbLine
 10
86.9712662849
 20
172.6297940951
 30
0.0
 11
106.7212671939
 21
172.6297940951
 31
0.0
  0
LINE
  5
17B
330
1F
100
AcDbEntity
  8
0
  6
SLD-Durchgehend
 62
     7
370
    15
100
AcDbLine
 10
67.2212653759
 20
172.6297940951
 30
0.0
 11
86.9712662849
 21
172.6297940951
 31
0.0
  0
LINE
  5
17C
330
1F
100
AcDbEntity
  8
0
  6
SLD-Durchgehend
 62
     7
370
    15
100
AcDbLine
 10
107.7212654951
 20
151.6297887903
 30
0.0
 11
66.2212670746
 21
151.6297887903
 31
0.0
  0
LINE
  5
17D
330
1F
100
AcDbEntity
  8
0
  6
SLD-Durchgehend
 62
     8
370
     0
100
AcDbLine
 10
107.5212658349
 20
118.3297913414
 30
0.0
 11
107.5212658349
 21
129.1297916215
 31
0.0
  0
LINE
  5
17E
330
1F
100
AcDbEntity
  8
0
  6
SLD-Durchgehend
 62
     8
370
     0
100
AcDbLine
 10
107.4212660047
 20
123.7297896188
 30
0.0
 11
107.4212660047
 21
118.3297913414
 31
0.0
  0
LINE
  5
17F
330
1F
100
AcDbEntity
  8
0
  6
SLD-Durchgehend
 62
     8
370
     0
100
AcDbLine
 10
107.4212660047
 20
129.1297916215
 30
0.0
 11
107.4212660047
 21
123.7297896188
 31
0.0
  0
LINE
  5
180
330
1F
100
AcDbEntity
  8
0
  6
SLD-Durchgehend
 62
     8
370
     0
100
AcDbLine
 10
107.037875891
 20
123.7297896188
 30
0.0
 11
107.037875891
 21
128.4145098072
 31
0.0
  0
LINE
  5
181
330
1F
100
AcDbEntity
  8
0
  6
SLD-Durchgehend
 62
     8
370
     0
100
AcDbLine
 10
107.037875891
 20
119.0450731557
 30
0.0
 11
107.037875891
 21
123.7297896188
 31
0.0
  0
LINE
  5
182
330
1F
100
AcDbEntity
  8
0
  6
SLD-Durchgehend
 62
     8
370
     0
100
AcDbLine
 10
105.5333075079
 20
102.4182531875
 30
0.0
 11
104.2837371084
 21
102.4182531875
 31
0.0
  0
LINE
  5
183
330
1F
100
AcDbEntity
  8
0
  6
SLD-Durchgehend
 62
     8
370
     0
100
AcDbLine
 10
105.5333075079
 20
103.4182533514
 30
0.0
 11
105.5333075079
 21
102.4182531875
 31
0.0
  0
LINE
  5
184
330
1F
100
AcDbEntity
  8
0
  6
SLD-Durchgehend
 62
     8
370
     0
100
AcDbLine
 10
105.5333075079
 20
103.4182533514
 30
0.0
 11
104.2837371084
 21
103.4182533514
 31
0.0
  0
LINE
  5
185
330
1F
100
AcDbEntity
  8
0
  6
SLD-Durchgehend
 62
     8
370
     0
100
AcDbLine
 10
104.2837371084
 20
104.8797909063
 30
0.0
 11
104.2837371084
 21
103.4182533514
 31
0.0
  0
LINE
  5
186
330
1F
100
AcDbEntity
  8
0
  6
SLD-Durchgehend
 62
     8
370
     0
100
AcDbLine
 10
105.6986079517
 20
104.8797909063
 30
0.0
 11
104.2837371084
 21
104.8797909063
 31
0.0
  0
LINE
  5
187
330
1F
100
AcDbEntity
  8
0
  6
SLD-Durchgehend
 62
     8
370
     0
100
AcDbLine
 10
105.6986079517
 20
105.8797910702
 30
0.0
 11
105.6986079517
 21
104.8797909063
 31
0.0
  0
LINE
  5
188
330
1F
100
AcDbEntity
  8
0
  6
SLD-Durchgehend
 62
     8
370
     0
100
AcDbLine
 10
105.6986079517
 20
105.8797910702
 30
0.0
 11
103.6280916038
 21
105.8797910702
 31
0.0
  0
LINE
  5
189
330
1F
100
AcDbEntity
  8
0
  6
SLD-Durchgehend
 62
     8
370
     0
100
AcDbLine
 10
103.6280916038
 20
99.8797900867
 30
0.0
 11
103.6280916038
 21
105.8797910702
 31
0.0
  0
LINE
  5
18A
330
1F
100
AcDbEntity
  8
0
  6
SLD-Durchgehend
 62
     8
370
     0
100
AcDbLine
 10
104.2837371084
 20
99.8797900867
 30
0.0
 11
103.6280916038
 21
99.8797900867
 31
0.0
  0
LINE
  5
18B
330
1F
100
AcDbEntity
  8
0
  6
SLD-Durchgehend
 62
     8
370
     0
100
AcDbLine
 10
104.2837371084
 20
102.4182531875
 30
0.0
 11
104.2837371084
 21
99.8797900867
 31
0.0
  0
LWPOLYLINE
  5
18C
330
1F
100
AcDbEntity
  8
0
  6
SLD-Durchgehend
 62
     8
370
     0
100
AcDbPolyline
 90
        7
 70
   128
 43
0.0
 10
94.5655932616
 20
99.80286843
 10
94.0903128091
 20
99.8658966165
 10
93.6477427337
 20
100.0696029406
 10
93.2793916169
 20
100.4038229477
 10
93.0158170837
 20
100.8348427605
 10
92.7675749141
 20
101.8255874407
 10
92.7100266296
 20
102.8509456557
  0
ARC
  5
18D
330
1F
100
AcDbEntity
  8
0
  6
SLD-Durchgehend
 62
     8
370
     0
100
AcDbCircle
 10
94.636318975
 20
101.252963378
 30
0.0
 40
1.451818681823997
100
AcDbArc
 50
267.20771647
 51
324.6140370398
  0
ARC
  5
18E
330
1F
100
AcDbEntity
  8
0
  6
SLD-Durchgehend
 62
     8
370
     0
100
AcDbCircle
 10
92.2818227484
 20
102.4608070202
 30
0.0
 40
4.088387373075258
100
AcDbArc
 50
329.9292382465
 51
5.3066465933
  0
ARC
  5
18F
330
1F
100
AcDbEntity
  8
0
  6
SLD-Durchgehend
 62
     8
370
     0
100
AcDbCircle
 10
92.272102051
 20
103.2192387416
 30
0.0
 40
4.098269500126741
100
AcDbArc
 50
354.6753840567
 51
29.916602445
  0
ARC
  5
190
330
1F
100
AcDbEntity
  8
0
  6
SLD-Durchgehend
 62
     8
370
     0
100
AcDbCircle
 10
94.6287027855
 20
104.4155865504
 30
0.0
 40
1.465563948721753
100
AcDbArc
 50
35.3350423263
 51
92.4680108981
  0
ARC
  5
191
330
1F
100
AcDbEntity
  8
0
  6
SLD-Durchgehend
 62
     8
370
     0
100
AcDbCircle
 10
94.5025886662
 20
104.3477802791
 30
0.0
 40
1.533305789115516
100
AcDbArc
 50
87.6450137634
 51
143.0061386942
  0
ARC
  5
192
330
1F
100
AcDbEntity
  8
0
  6
SLD-Durchgehend
 62
     8
370
     0
100
AcDbCircle
 10
96.5924517172
 20
103.2160288071
 30
0.0
 40
3.899552572902105
100
AcDbArc
 50
148.2087317625
 51
185.3720015242
  0
LWPOLYLINE
  5
193
330
1F
100
AcDbEntity
  8
0
  6
SLD-Durchgehend
 62
     8
370
     0
100
AcDbPolyline
 90
       13
 70
   128
 43
0.0
 10
77.2319558042
 20
104.0228195381
 10
77.4449297193
 20
103.8872487735
 10
77.6762385818
 20
103.7913355869
 10
78.1558026525
 20
103.6420725178
 10
78.6440755206
 20
103.5040244352
 10
79.1278361309
 20
103.3292598915
 10
79.3632577139
 20
103.2183896643
 10
79.5854396153
 20
103.0776705485
 10
79.9533492851
 20
102.6899982136
 10
80.0858243334
 20
102.4511251491
 10
80.1753784496
 20
102.1916903448
 10
80.2239492501
 20
101.9195765149
 10
80.2381435375
 20
101.6430128258
  0
ARC
  5
194
330
1F
100
AcDbEntity
  8
0
  6
SLD-Durchgehend
 62
     8
370
     0
100
AcDbCircle
 10
77.550967497
 20
104.3754607521
 30
0.0
 40
0.4755252736863727
100
AcDbArc
 50
179.4781525392
 51
227.8663940187
  0
ARC
  5
195
330
1F
100
AcDbEntity
  8
0
  6
SLD-Durchgehend
 62
     8
370
     0
100
AcDbCircle
 10
77.522997054
 20
104.3956964835
 30
0.0
 40
0.4478176331801033
100
AcDbArc
 50
128.9474921888
 51
182.0353496583
  0
LWPOLYLINE
  5
196
330
1F
100
AcDbEntity
  8
0
  6
SLD-Durchgehend
 62
     8
370
     0
100
AcDbPolyline
 90
        3
 70
   128
 43
0.0
 10
77.9633355293
 20
104.9567144256
 10
77.5850052911
 20
104.913312931
 10
77.2414953414
 20
104.7439742726
  0
ARC
  5
197
330
1F
100
AcDbEntity
  8
0
  6
SLD-Durchgehend
 62
     8
370
     0
100
AcDbCircle
 10
78.0592505403
 20
104.075151229
 30
0.0
 40
0.8867656730960476
100
AcDbArc
 50
2.2884065867
 51
96.2094167894
  0
LINE
  5
198
330
1F
100
AcDbEntity
  8
0
  6
SLD-Durchgehend
 62
     8
370
     0
100
AcDbLine
 10
80.0204110298
 20
104.1874829572
 30
0.0
 11
78.9453090134
 21
104.1105594378
 31
0.0
  0
ARC
  5
199
330
1F
100
AcDbEntity
  8
0
  6
SLD-Durchgehend
 62
     8
370
     0
100
AcDbCircle
 10
78.2092072458
 20
104.1639483404
 30
0.0
 40
1.811356680879099
100
AcDbArc
 50
0.7444542389
 51
98.2158503432
  0
ARC
  5
19A
330
1F
100
AcDbEntity
  8
0
  6
SLD-Durchgehend
 62
     8
370
     0
100
AcDbCircle
 10
77.7516641418
 20
104.2955932809
 30
0.0
 40
1.672962585479052
100
AcDbArc
 50
83.1789649927
 51
179.8743479462
  0
ARC
  5
19B
330
1F
100
AcDbEntity
  8
0
  6
SLD-Durchgehend
 62
     8
370
     0
100
AcDbCircle
 10
77.756583722
 20
104.2729976083
 30
0.0
 40
1.678083695185413
100
AcDbArc
 50
179.1031978062
 51
224.1879633696
  0
LWPOLYLINE
  5
19C
330
1F
100
AcDbEntity
  8
0
  6
SLD-Durchgehend
 62
     8
370
     0
100
AcDbPolyline
 90
        3
 70
   128
 43
0.0
 10
77.7594736743
 20
102.5144066554
 10
77.1219591576
 20
102.7360129994
 10
76.5533019754
 20
103.1033489745
  0
ARC
  5
19D
330
1F
100
AcDbEntity
  8
0
  6
SLD-Durchgehend
 62
     8
370
     0
100
AcDbCircle
 10
72.8109884934
 20
84.1755869481
 30
0.0
 40
18.99473121272345
100
AcDbArc
 50
72.1267418676
 51
74.8991500089
  0
LWPOLYLINE
  5
19E
330
1F
100
AcDbEntity
  8
0
  6
SLD-Durchgehend
 62
     8
370
     0
100
AcDbPolyline
 90
        5
 70
   128
 43
0.0
 10
79.1584319401
 20
101.6309931767
 10
79.1211538914
 20
101.8524728608
 10
79.0726319853
 20
101.9506920021
 10
79.003229827
 20
102.0372435343
 10
78.6407078582
 20
102.2535897684
  0
ARC
  5
19F
330
1F
100
AcDbEntity
  8
0
  6
SLD-Durchgehend
 62
     8
370
     0
100
AcDbCircle
 10
78.2220611731
 20
101.7304002014
 30
0.0
 40
0.9416326087106328
100
AcDbArc
 50
260.071918807
 51
353.9400614484
  0
ARC
  5
1A0
330
1F
100
AcDbEntity
  8
0
  6
SLD-Durchgehend
 62
     8
370
     0
100
AcDbCircle
 10
78.0363343345
 20
101.965462638
 30
0.0
 40
1.162829071987608
100
AcDbArc
 50
180.4310767258
 51
271.1519847012
  0
LINE
  5
1A1
330
1F
100
AcDbEntity
  8
0
  6
SLD-Durchgehend
 62
     8
370
     0
100
AcDbLine
 10
75.8833364549
 20
101.8797904145
 30
0.0
 11
76.873538174
 21
101.9567139339
 31
0.0
  0
ARC
  5
1A2
330
1F
100
AcDbEntity
  8
0
  6
SLD-Durchgehend
 62
     8
370
     0
100
AcDbCircle
 10
77.9021052755
 20
101.8184186341
 30
0.0
 40
2.019701474574749
100
AcDbArc
 50
178.2587103096
 51
273.6741676319
  0
ARC
  5
1A3
330
1F
100
AcDbEntity
  8
0
  6
SLD-Durchgehend
 62
     8
370
     0
100
AcDbCircle
 10
78.3121997892
 20
101.7094081122
 30
0.0
 40
1.927087869162026
100
AcDbArc
 50
261.6254730824
 51
358.0255582643
  0
LINE
  5
1A4
330
1F
100
AcDbEntity
  8
0
  6
SLD-Durchgehend
 62
     8
370
     0
100
AcDbLine
 10
70.439778358
 20
99.8797900867
 30
0.0
 11
69.1295006278
 21
103.7620026511
 31
0.0
  0
LINE
  5
1A5
330
1F
100
AcDbEntity
  8
0
  6
SLD-Durchgehend
 62
     8
370
     0
100
AcDbLine
 10
71.213232443
 20
99.8797900867
 30
0.0
 11
70.439778358
 21
99.8797900867
 31
0.0
  0
LINE
  5
1A6
330
1F
100
AcDbEntity
  8
0
  6
SLD-Durchgehend
 62
     8
370
     0
100
AcDbLine
 10
71.213232443
 20
105.8797910702
 30
0.0
 11
71.213232443
 21
99.8797900867
 31
0.0
  0
LINE
  5
1A7
330
1F
100
AcDbEntity
  8
0
  6
SLD-Durchgehend
 62
     8
370
     0
100
AcDbLine
 10
71.213232443
 20
105.8797910702
 30
0.0
 11
70.4925079796
 21
105.8797910702
 31
0.0
  0
LINE
  5
1A8
330
1F
100
AcDbEntity
  8
0
  6
SLD-Durchgehend
 62
     8
370
     0
100
AcDbLine
 10
70.4925079796
 20
101.9374839854
 30
0.0
 11
70.4925079796
 21
105.8797910702
 31
0.0
  0
LINE
  5
1A9
330
1F
100
AcDbEntity
  8
0
  6
SLD-Durchgehend
 62
     8
370
     0
100
AcDbLine
 10
69.1555776599
 20
105.8797910702
 30
0.0
 11
70.4925079796
 21
101.9374839854
 31
0.0
  0
LINE
  5
1AA
330
1F
100
AcDbEntity
  8
0
  6
SLD-Durchgehend
 62
     8
370
     0
100
AcDbLine
 10
69.1555776599
 20
105.8797910702
 30
0.0
 11
68.576712251
 21
105.8797910702
 31
0.0
  0
LINE
  5
1AB
330
1F
100
AcDbEntity
  8
0
  6
SLD-Durchgehend
 62
     8
370
     0
100
AcDbLine
 10
68.576712251
 20
99.8797900867
 30
0.0
 11
68.576712251
 21
105.8797910702
 31
0.0
  0
LINE
  5
1AC
330
1F
100
AcDbEntity
  8
0
  6
SLD-Durchgehend
 62
     8
370
     0
100
AcDbLine
 10
69.1295006278
 20
99.8797900867
 30
0.0
 11
68.576712251
 21
99.8797900867
 31
0.0
  0
LINE
  5
1AD
330
1F
100
AcDbEntity
  8
0
  6
SLD-Durchgehend
 62
     8
370
     0
100
AcDbLine
 10
69.1295006278
 20
103.7620026511
 30
0.0
 11
69.1295006278
 21
99.8797900867
 31
0.0
  0
LINE
  5
1AE
330
1F
100
AcDbEntity
  8
0
  6
SLD-Durchgehend
 62
     8
370
     0
100
AcDbLine
 10
75.4048480618
 20
104.8797909063
 30
0.0
 11
73.9834113944
 21
104.8797909063
 31
0.0
  0
LINE
  5
1AF
330
1F
100
AcDbEntity
  8
0
  6
SLD-Durchgehend
 62
     8
370
     0
100
AcDbLine
 10
75.4048480618
 20
105.8797910702
 30
0.0
 11
75.4048480618
 21
104.8797909063
 31
0.0
  0
LINE
  5
1B0
330
1F
100
AcDbEntity
  8
0
  6
SLD-Durchgehend
 62
     8
370
     0
100
AcDbLine
 10
75.4048480618
 20
105.8797910702
 30
0.0
 11
71.8483674306
 21
105.8797910702
 31
0.0
  0
LINE
  5
1B1
330
1F
100
AcDbEntity
  8
0
  6
SLD-Durchgehend
 62
     8
370
     0
100
AcDbLine
 10
71.8483674306
 20
104.8797909063
 30
0.0
 11
71.8483674306
 21
105.8797910702
 31
0.0
  0
LINE
  5
1B2
330
1F
100
AcDbEntity
  8
0
  6
SLD-Durchgehend
 62
     8
370
     0
100
AcDbLine
 10
73.1070973876
 20
104.8797909063
 30
0.0
 11
71.8483674306
 21
104.8797909063
 31
0.0
  0
LINE
  5
1B3
330
1F
100
AcDbEntity
  8
0
  6
SLD-Durchgehend
 62
     8
370
     0
100
AcDbLine
 10
73.1070973876
 20
99.8797900867
 30
0.0
 11
73.1070973876
 21
104.8797909063
 31
0.0
  0
LINE
  5
1B4
330
1F
100
AcDbEntity
  8
0
  6
SLD-Durchgehend
 62
     8
370
     0
100
AcDbLine
 10
73.9834113944
 20
99.8797900867
 30
0.0
 11
73.1070973876
 21
99.8797900867
 31
0.0
  0
LINE
  5
1B5
330
1F
100
AcDbEntity
  8
0
  6
SLD-Durchgehend
 62
     8
370
     0
100
AcDbLine
 10
73.9834113944
 20
104.8797909063
 30
0.0
 11
73.9834113944
 21
99.8797900867
 31
0.0
  0
ARC
  5
1B6
330
1F
100
AcDbEntity
  8
0
  6
SLD-Durchgehend
 62
     8
370
     0
100
AcDbCircle
 10
101.6198992954
 20
86.7132949973
 30
0.0
 40
21.91518077771581
100
AcDbArc
 50
132.9933716474
 51
139.1982329542
  0
LWPOLYLINE
  5
1B7
330
1F
100
AcDbEntity
  8
0
  6
SLD-Durchgehend
 62
     8
370
     0
100
AcDbPolyline
 90
        3
 70
   128
 43
0.0
 10
87.2573477706
 20
104.2475793403
 10
87.099084924
 20
103.4455653172
 10
86.6756362399
 20
102.7427725386
  0
ARC
  5
1B8
330
1F
100
AcDbEntity
  8
0
  6
SLD-Durchgehend
 62
     8
370
     0
100
AcDbCircle
 10
85.6063339925
 20
104.2395945374
 30
0.0
 40
1.651033086383233
100
AcDbArc
 50
0.2770975907
 51
96.5681514879
  0
ARC
  5
1B9
330
1F
100
AcDbEntity
  8
0
  6
SLD-Durchgehend
 62
     8
370
     0
100
AcDbCircle
 10
85.3087204727
 20
104.0789475126
 30
0.0
 40
1.804124800086634
100
AcDbArc
 50
86.5438757081
 51
180.2938488128
  0
LINE
  5
1BA
330
1F
100
AcDbEntity
  8
0
  6
SLD-Durchgehend
 62
     8
370
     0
100
AcDbLine
 10
84.6469086561
 20
103.9567142617
 30
0.0
 11
83.5046193994
 21
104.0696948659
 31
0.0
  0
LWPOLYLINE
  5
1BB
330
1F
100
AcDbEntity
  8
0
  6
SLD-Durchgehend
 62
     8
370
     0
100
AcDbPolyline
 90
        6
 70
   128
 43
0.0
 10
85.3935114307
 20
104.8797909063
 10
85.0682379411
 20
104.8138383668
 10
84.9280884455
 20
104.7229487341
 10
84.8178643233
 20
104.5977994692
 10
84.6921115614
 20
104.2888425183
 10
84.6469086561
 20
103.9567142617
  0
ARC
  5
1BC
330
1F
100
AcDbEntity
  8
0
  6
SLD-Durchgehend
 62
     8
370
     0
100
AcDbCircle
 10
85.4124453209
 20
104.1828519708
 30
0.0
 40
0.6971960785946082
100
AcDbArc
 50
352.5564667585
 51
91.5561840164
  0
LWPOLYLINE
  5
1BD
330
1F
100
AcDbEntity
  8
0
  6
SLD-Durchgehend
 62
     8
370
     0
100
AcDbPolyline
 90
        3
 70
   128
 43
0.0
 10
85.8756600379
 20
103.3990215402
 10
86.0411021591
 20
103.7292666626
 10
86.1037661404
 20
104.0925308954
  0
ARC
  5
1BE
330
1F
100
AcDbEntity
  8
0
  6
SLD-Durchgehend
 62
     8
370
     0
100
AcDbCircle
 10
78.641567669
 20
109.3190960514
 30
0.0
 40
9.34769354543573
100
AcDbArc
 50
312.5273698579
 51
320.7045604963
  0
ARC
  5
1BF
330
1F
100
AcDbEntity
  8
0
  6
SLD-Durchgehend
 62
     8
370
     0
100
AcDbCircle
 10
87.2209725336
 20
99.2241966414
 30
0.0
 40
3.92308498088523
100
AcDbArc
 50
125.1912464395
 51
170.3800698899
  0
LINE
  5
1C0
330
1F
100
AcDbEntity
  8
0
  6
SLD-Durchgehend
 62
     8
370
     0
100
AcDbLine
 10
87.2573477706
 20
99.8797900867
 30
0.0
 11
83.3530541009
 21
99.8797900867
 31
0.0
  0
LINE
  5
1C1
330
1F
100
AcDbEntity
  8
0
  6
SLD-Durchgehend
 62
     8
370
     0
100
AcDbLine
 10
87.2573477706
 20
101.0336372894
 30
0.0
 11
87.2573477706
 21
99.8797900867
 31
0.0
  0
LINE
  5
1C2
330
1F
100
AcDbEntity
  8
0
  6
SLD-Durchgehend
 62
     8
370
     0
100
AcDbLine
 10
87.2573477706
 20
101.0336372894
 30
0.0
 11
85.0306574454
 21
101.0336372894
 31
0.0
  0
LWPOLYLINE
  5
1C3
330
1F
100
AcDbEntity
  8
0
  6
SLD-Durchgehend
 62
     8
370
     0
100
AcDbPolyline
 90
        3
 70
   128
 43
0.0
 10
92.009073213
 20
101.8581557911
 10
91.9072633575
 20
101.1804714691
 10
91.5954081307
 20
100.5745027107
  0
ARC
  5
1C4
330
1F
100
AcDbEntity
  8
0
  6
SLD-Durchgehend
 62
     8
370
     0
100
AcDbCircle
 10
90.2392018224
 20
102.0268987163
 30
0.0
 40
1.777897329528022
100
AcDbArc
 50
354.5537731409
 51
87.3308699296
  0
ARC
  5
1C5
330
1F
100
AcDbEntity
  8
0
  6
SLD-Durchgehend
 62
     8
370
     0
100
AcDbCircle
 10
90.3386832243
 20
102.4422472648
 30
0.0
 40
1.360722291203347
100
AcDbArc
 50
90.7026896227
 51
123.4103968763
  0
LINE
  5
1C6
330
1F
100
AcDbEntity
  8
0
  6
SLD-Durchgehend
 62
     8
370
     0
100
AcDbLine
 10
89.8229261826
 20
104.6490222108
 30
0.0
 11
89.5894256852
 21
103.5781074208
 31
0.0
  0
LINE
  5
1C7
330
1F
100
AcDbEntity
  8
0
  6
SLD-Durchgehend
 62
     8
370
     0
100
AcDbLine
 10
91.7849667336
 20
104.6490222108
 30
0.0
 11
89.8229261826
 21
104.6490222108
 31
0.0
  0
LINE
  5
1C8
330
1F
100
AcDbEntity
  8
0
  6
SLD-Durchgehend
 62
     8
370
     0
100
AcDbLine
 10
91.7849667336
 20
105.8028675508
 30
0.0
 11
91.7849667336
 21
104.6490222108
 31
0.0
  0
LINE
  5
1C9
330
1F
100
AcDbEntity
  8
0
  6
SLD-Durchgehend
 62
     8
370
     0
100
AcDbLine
 10
91.7849667336
 20
105.8028675508
 30
0.0
 11
88.9037557378
 21
105.8028675508
 31
0.0
  0
LINE
  5
1CA
330
1F
100
AcDbEntity
  8
0
  6
SLD-Durchgehend
 62
     8
370
     0
100
AcDbLine
 10
88.2135295275
 20
102.4831570577
 30
0.0
 11
88.9037557378
 21
105.8028675508
 31
0.0
  0
LINE
  5
1CB
330
1F
100
AcDbEntity
  8
0
  6
SLD-Durchgehend
 62
     8
370
     0
100
AcDbLine
 10
89.2170407775
 20
102.3413296681
 30
0.0
 11
88.2135295275
 21
102.4831570577
 31
0.0
  0
ARC
  5
1CC
330
1F
100
AcDbEntity
  8
0
  6
SLD-Durchgehend
 62
     8
370
     0
100
AcDbCircle
 10
90.0813094368
 20
101.763943799
 30
0.0
 40
1.039391532225889
100
AcDbArc
 50
91.7199408757
 51
146.2545828
  0
ARC
  5
1CD
330
1F
100
AcDbEntity
  8
0
  6
SLD-Durchgehend
 62
     8
370
     0
100
AcDbCircle
 10
90.0479036199
 20
101.9585617195
 30
0.0
 40
0.8443082303185971
100
AcDbArc
 50
351.4416776691
 51
89.8500678443
  0
ARC
  5
1CE
330
1F
100
AcDbEntity
  8
0
  6
SLD-Durchgehend
 62
     8
370
     0
100
AcDbCircle
 10
89.970763499
 20
101.721661931
 30
0.0
 40
0.9188072662603125
100
AcDbArc
 50
269.6845074858
 51
6.9546860568
  0
ARC
  5
1CF
330
1F
100
AcDbEntity
  8
0
  6
SLD-Durchgehend
 62
     8
370
     0
100
AcDbCircle
 10
90.0180344961
 20
101.7633337879
 30
0.0
 40
0.961889726905705
100
AcDbArc
 50
182.2276419279
 51
266.8813628979
  0
LINE
  5
1D0
330
1F
100
AcDbEntity
  8
0
  6
SLD-Durchgehend
 62
     8
370
     0
100
AcDbLine
 10
88.05992894
 20
101.596137498
 30
0.0
 11
89.0568716883
 21
101.7259452384
 31
0.0
  0
ARC
  5
1D1
330
1F
100
AcDbEntity
  8
0
  6
SLD-Durchgehend
 62
     8
370
     0
100
AcDbCircle
 10
89.9589311162
 20
101.7041645506
 30
0.0
 40
1.902072319673293
100
AcDbArc
 50
183.2558312523
 51
271.6369124273
  0
ARC
  5
1D2
330
1F
100
AcDbEntity
  8
0
  6
SLD-Durchgehend
 62
     8
370
     0
100
AcDbCircle
 10
90.065710914
 20
101.7031484834
 30
0.0
 40
1.901003644186458
100
AcDbArc
 50
268.4190925678
 51
323.5792408625
  0
LINE
  5
1D3
330
1F
100
AcDbEntity
  8
0
  6
SLD-Durchgehend
 62
     8
370
     0
100
AcDbLine
 10
102.0352813381
 20
102.4951748442
 30
0.0
 11
100.2487028915
 21
102.4951748442
 31
0.0
  0
LINE
  5
1D4
330
1F
100
AcDbEntity
  8
0
  6
SLD-Durchgehend
 62
     8
370
     0
100
AcDbLine
 10
102.0352813381
 20
99.8797900867
 30
0.0
 11
102.0352813381
 21
102.4951748442
 31
0.0
  0
LINE
  5
1D5
330
1F
100
AcDbEntity
  8
0
  6
SLD-Durchgehend
 62
     8
370
     0
100
AcDbLine
 10
102.8005798313
 20
99.8797900867
 30
0.0
 11
102.0352813381
 21
99.8797900867
 31
0.0
  0
LINE
  5
1D6
330
1F
100
AcDbEntity
  8
0
  6
SLD-Durchgehend
 62
     8
370
     0
100
AcDbLine
 10
102.8005798313
 20
105.8797910702
 30
0.0
 11
102.8005798313
 21
99.8797900867
 31
0.0
  0
LINE
  5
1D7
330
1F
100
AcDbEntity
  8
0
  6
SLD-Durchgehend
 62
     8
370
     0
100
AcDbLine
 10
102.8005798313
 20
105.8797910702
 30
0.0
 11
102.0352813381
 21
105.8797910702
 31
0.0
  0
LINE
  5
1D8
330
1F
100
AcDbEntity
  8
0
  6
SLD-Durchgehend
 62
     8
370
     0
100
AcDbLine
 10
102.0352813381
 20
103.4951750081
 30
0.0
 11
102.0352813381
 21
105.8797910702
 31
0.0
  0
LINE
  5
1D9
330
1F
100
AcDbEntity
  8
0
  6
SLD-Durchgehend
 62
     8
370
     0
100
AcDbLine
 10
102.0352813381
 20
103.4951750081
 30
0.0
 11
100.2487028915
 21
103.4951750081
 31
0.0
  0
LINE
  5
1DA
330
1F
100
AcDbEntity
  8
0
  6
SLD-Durchgehend
 62
     8
370
     0
100
AcDbLine
 10
100.2487028915
 20
105.8797910702
 30
0.0
 11
100.2487028915
 21
103.4951750081
 31
0.0
  0
LINE
  5
1DB
330
1F
100
AcDbEntity
  8
0
  6
SLD-Durchgehend
 62
     8
370
     0
100
AcDbLine
 10
100.2487028915
 20
105.8797910702
 30
0.0
 11
99.344724879
 21
105.8797910702
 31
0.0
  0
LINE
  5
1DC
330
1F
100
AcDbEntity
  8
0
  6
SLD-Durchgehend
 62
     8
370
     0
100
AcDbLine
 10
99.344724879
 20
99.8797900867
 30
0.0
 11
99.344724879
 21
105.8797910702
 31
0.0
  0
LINE
  5
1DD
330
1F
100
AcDbEntity
  8
0
  6
SLD-Durchgehend
 62
     8
370
     0
100
AcDbLine
 10
100.2487028915
 20
99.8797900867
 30
0.0
 11
99.344724879
 21
99.8797900867
 31
0.0
  0
LINE
  5
1DE
330
1F
100
AcDbEntity
  8
0
  6
SLD-Durchgehend
 62
     8
370
     0
100
AcDbLine
 10
100.2487028915
 20
102.4951748442
 30
0.0
 11
100.2487028915
 21
99.8797900867
 31
0.0
  0
ARC
  5
1DF
330
1F
100
AcDbEntity
  8
0
  6
SLD-Durchgehend
 62
     8
370
     0
100
AcDbCircle
 10
94.5976412334
 20
104.20788283
 30
0.0
 40
0.6726719374828598
100
AcDbArc
 50
92.7307648566
 51
172.9152343326
  0
ARC
  5
1E0
330
1F
100
AcDbEntity
  8
0
  6
SLD-Durchgehend
 62
     8
370
     0
100
AcDbCircle
 10
100.3237308097
 20
103.0260380719
 30
0.0
 40
6.517529651792468
100
AcDbArc
 50
168.810015677
 51
181.645133271
  0
LWPOLYLINE
  5
1E1
330
1F
100
AcDbEntity
  8
0
  6
SLD-Durchgehend
 62
     8
370
     0
100
AcDbPolyline
 90
        7
 70
   128
 43
0.0
 10
93.8088876161
 20
102.8389260065
 10
93.8769523951
 20
101.6259379577
 10
93.9498404938
 20
101.3322248947
 10
94.0756505321
 20
101.0599024486
 10
94.1700773279
 20
100.9466182333
 10
94.2905606668
 20
100.8664406728
 10
94.5655932616
 20
100.8028685939
  0
ARC
  5
1E2
330
1F
100
AcDbEntity
  8
0
  6
SLD-Durchgehend
 62
     8
370
     0
100
AcDbCircle
 10
94.5331240542
 20
101.4659747659
 30
0.0
 40
0.6639006286840635
100
AcDbArc
 50
272.8032673643
 51
353.586143266
  0
ARC
  5
1E3
330
1F
100
AcDbEntity
  8
0
  6
SLD-Durchgehend
 62
     8
370
     0
100
AcDbCircle
 10
88.6749366743
 20
102.6508010195
 30
0.0
 40
6.638411073987497
100
AcDbArc
 50
349.0675049104
 51
1.6239143524
  0
LWPOLYLINE
  5
1E4
330
1F
100
AcDbEntity
  8
0
  6
SLD-Durchgehend
 62
     8
370
     0
100
AcDbPolyline
 90
        7
 70
   128
 43
0.0
 10
95.3106815892
 20
102.8389260065
 10
95.2446890029
 20
104.0534656387
 10
95.1729007962
 20
104.3473053616
 10
95.0504700619
 20
104.6202145409
 10
94.9574737775
 20
104.7336254161
 10
94.8391669396
 20
104.8150528115
 10
94.5655932616
 20
104.8797909063
  0
LINE
  5
1E5
330
1F
100
AcDbEntity
  8
0
  6
SLD-Durchgehend
 62
     8
370
     0
100
AcDbLine
 10
107.621265665
 20
109.8797898632
 30
0.0
 11
107.6153107885
 21
109.8797898632
 31
0.0
  0
LINE
  5
1E6
330
1F
100
AcDbEntity
  8
0
  6
SLD-Durchgehend
 62
     8
370
     0
100
AcDbLine
 10
107.6153107885
 20
95.8797912937
 30
0.0
 11
107.621265665
 21
95.8797912937
 31
0.0
  0
LINE
  5
1E7
330
1F
100
AcDbEntity
  8
0
  6
SLD-Durchgehend
 62
     8
370
     0
100
AcDbLine
 10
86.9712662849
 20
216.1297853928
 30
0.0
 11
74.9712661806
 21
216.1297853928
 31
0.0
  0
LINE
  5
1E8
330
1F
100
AcDbEntity
  8
0
  6
SLD-Durchgehend
 62
     8
370
     0
100
AcDbLine
 10
98.9712663892
 20
216.1297853928
 30
0.0
 11
86.9712662849
 21
216.1297853928
 31
0.0
  0
LINE
  5
1E9
330
1F
100
AcDbEntity
  8
0
  6
SLD-Durchgehend
 62
     8
370
     0
100
AcDbLine
 10
86.9712662849
 20
173.1297876578
 30
0.0
 11
98.9712663892
 21
173.1297876578
 31
0.0
  0
LINE
  5
1EA
330
1F
100
AcDbEntity
  8
0
  6
SLD-Durchgehend
 62
     8
370
     0
100
AcDbLine
 10
74.9712661806
 20
173.1297876578
 30
0.0
 11
86.9712662849
 21
173.1297876578
 31
0.0
  0
LINE
  5
1EB
330
1F
100
AcDbEntity
  8
0
  6
SLD-Durchgehend
 62
     8
370
     0
100
AcDbLine
 10
87.2212662968
 20
217.1297874194
 30
0.0
 11
86.721266273
 21
217.1297874194
 31
0.0
  0
LWPOLYLINE
  5
1EC
330
1F
100
AcDbEntity
  8
0
  6
SLD-Durchgehend
 62
     8
370
     0
100
AcDbPolyline
 90
        9
 70
   128
 43
0.0
 10
87.2212662968
 20
217.1297874194
 10
87.2260699713
 20
217.0322444182
 10
87.2402963893
 20
216.9384565097
 10
87.2633988935
 20
216.8519999724
 10
87.2944895842
 20
216.7762424689
 10
87.3323737202
 20
216.7140599233
 10
87.3755954405
 20
216.6678514224
 10
87.4224937021
 20
216.6394051057
 10
87.4712663086
 20
216.6297938567
  0
LWPOLYLINE
  5
1ED
330
1F
100
AcDbEntity
  8
0
  6
SLD-Durchgehend
 62
     8
370
     0
100
AcDbPolyline
 90
        9
 70
   128
 43
0.0
 10
86.721266273
 20
217.1297874194
 10
86.7164625985
 20
217.0322444182
 10
86.7022361805
 20
216.9384565097
 10
86.6791336763
 20
216.8519999724
 10
86.6480429855
 20
216.7762424689
 10
86.6101588496
 20
216.7140599233
 10
86.5669371293
 20
216.6678514224
 10
86.5200388677
 20
216.6394051057
 10
86.4712662611
 20
216.6297938567
  0
LINE
  5
1EE
330
1F
100
AcDbEntity
  8
0
  6
SLD-Durchgehend
 62
     8
370
     0
100
AcDbLine
 10
79.2212664115
 20
217.1297874194
 30
0.0
 11
86.721266273
 21
217.1297874194
 31
0.0
  0
LWPOLYLINE
  5
1EF
330
1F
100
AcDbEntity
  8
0
  6
SLD-Durchgehend
 62
     8
370
     0
100
AcDbPolyline
 90
        9
 70
   128
 43
0.0
 10
79.2212664115
 20
217.1297874194
 10
79.2164626497
 20
217.0322444182
 10
79.2022362317
 20
216.9384565097
 10
79.1791338439
 20
216.8519999724
 10
79.1480430368
 20
216.7762424689
 10
79.1101586971
 20
216.7140599233
 10
79.0669369477
 20
216.6678514224
 10
79.0200392681
 20
216.6394051057
 10
78.9712659049
 20
216.6297938567
  0
LINE
  5
1F0
330
1F
100
AcDbEntity
  8
0
  6
SLD-Durchgehend
 62
     8
370
     0
100
AcDbLine
 10
87.2212662968
 20
217.1297874194
 30
0.0
 11
94.7212661582
 21
217.1297874194
 31
0.0
  0
LWPOLYLINE
  5
1F1
330
1F
100
AcDbEntity
  8
0
  6
SLD-Durchgehend
 62
     8
370
     0
100
AcDbPolyline
 90
        9
 70
   128
 43
0.0
 10
94.7212661582
 20
217.1297874194
 10
94.7260699201
 20
217.0322444182
 10
94.7402963381
 20
216.9384565097
 10
94.7633987258
 20
216.8519999724
 10
94.794489533
 20
216.7762424689
 10
94.8323738727
 20
216.7140599233
 10
94.8755956221
 20
216.6678514224
 10
94.9224933016
 20
216.6394051057
 10
94.9712666649
 20
216.6297938567
  0
LWPOLYLINE
  5
1F2
330
1F
100
AcDbEntity
  8
0
  6
SLD-Durchgehend
 62
     8
370
     0
100
AcDbPolyline
 90
        9
 70
   128
 43
0.0
 10
86.9712662849
 20
220.6297870618
 10
87.020038866
 20
220.620190714
 10
87.0669371458
 20
220.5917294961
 10
87.1101588442
 20
220.5455209952
 10
87.1480429802
 20
220.4833384496
 10
87.1791336855
 20
220.407580946
 10
87.2022361751
 20
220.32113931
 10
87.2164625931
 20
220.2273365002
 10
87.2212662968
 20
220.1297934991
  0
LINE
  5
1F3
330
1F
100
AcDbEntity
  8
0
  6
SLD-Durchgehend
 62
     8
370
     0
100
AcDbLine
 10
86.721266273
 20
220.1297934991
 30
0.0
 11
87.2212662968
 21
220.1297934991
 31
0.0
  0
LWPOLYLINE
  5
1F4
330
1F
100
AcDbEntity
  8
0
  6
SLD-Durchgehend
 62
     8
370
     0
100
AcDbPolyline
 90
        9
 70
   128
 43
0.0
 10
86.9712662849
 20
220.6297870618
 10
86.9224937038
 20
220.620190714
 10
86.875595424
 20
220.5917294961
 10
86.8323737256
 20
220.5455209952
 10
86.7944895896
 20
220.4833384496
 10
86.7633988843
 20
220.407580946
 10
86.7402963946
 20
220.32113931
 10
86.7260699766
 20
220.2273365002
 10
86.721266273
 20
220.1297934991
  0
LINE
  5
1F5
330
1F
100
AcDbEntity
  8
0
  6
SLD-Durchgehend
 62
     8
370
     0
100
AcDbLine
 10
87.2212662968
 20
220.1297934991
 30
0.0
 11
87.2212662968
 21
217.1297874194
 31
0.0
  0
LINE
  5
1F6
330
1F
100
AcDbEntity
  8
0
  6
SLD-Durchgehend
 62
     8
370
     0
100
AcDbLine
 10
86.721266273
 20
217.1297874194
 30
0.0
 11
86.721266273
 21
220.1297934991
 31
0.0
  0
LINE
  5
1F7
330
1F
100
AcDbEntity
  8
0
  6
SLD-Durchgehend
 62
     8
370
     0
100
AcDbLine
 10
86.721266273
 20
220.1297934991
 30
0.0
 11
79.2212664115
 21
220.1297934991
 31
0.0
  0
LWPOLYLINE
  5
1F8
330
1F
100
AcDbEntity
  8
0
  6
SLD-Durchgehend
 62
     8
370
     0
100
AcDbPolyline
 90
        9
 70
   128
 43
0.0
 10
79.4712664525
 20
220.6297870618
 10
79.422493555
 20
220.620190714
 10
79.3755954097
 20
220.5917294961
 10
79.3323736604
 20
220.5455209952
 10
79.2944897863
 20
220.4833384496
 10
79.2633989792
 20
220.407580946
 10
79.2402965914
 20
220.32113931
 10
79.2260701734
 20
220.2273365002
 10
79.2212664115
 20
220.1297934991
  0
LINE
  5
1F9
330
1F
100
AcDbEntity
  8
0
  6
SLD-Durchgehend
 62
     8
370
     0
100
AcDbLine
 10
79.2212664115
 20
220.1297934991
 30
0.0
 11
79.2212664115
 21
217.1297874194
 31
0.0
  0
LWPOLYLINE
  5
1FA
330
1F
100
AcDbEntity
  8
0
  6
SLD-Durchgehend
 62
     8
370
     0
100
AcDbPolyline
 90
        9
 70
   128
 43
0.0
 10
94.4712661172
 20
220.6297870618
 10
94.5200390148
 20
220.620190714
 10
94.56693716
 20
220.5917294961
 10
94.6101589094
 20
220.5455209952
 10
94.6480427834
 20
220.4833384496
 10
94.6791335906
 20
220.407580946
 10
94.7022359784
 20
220.32113931
 10
94.7164623964
 20
220.2273365002
 10
94.7212661582
 20
220.1297934991
  0
LINE
  5
1FB
330
1F
100
AcDbEntity
  8
0
  6
SLD-Durchgehend
 62
     8
370
     0
100
AcDbLine
 10
94.7212661582
 20
220.1297934991
 30
0.0
 11
87.2212662968
 21
220.1297934991
 31
0.0
  0
LINE
  5
1FC
330
1F
100
AcDbEntity
  8
0
  6
SLD-Durchgehend
 62
     8
370
     0
100
AcDbLine
 10
94.7212661582
 20
217.1297874194
 30
0.0
 11
94.7212661582
 21
220.1297934991
 31
0.0
  0
LINE
  5
1FD
330
1F
100
AcDbEntity
  8
0
  6
SLD-Durchgehend
 62
     8
370
     0
100
AcDbLine
 10
79.2212664115
 20
217.1297874194
 30
0.0
 11
78.9712659049
 21
217.1297874194
 31
0.0
  0
LINE
  5
1FE
330
1F
100
AcDbEntity
  8
0
  6
SLD-Durchgehend
 62
     8
370
     0
100
AcDbLine
 10
94.7212661582
 20
217.1297874194
 30
0.0
 11
94.9712666649
 21
217.1297874194
 31
0.0
  0
LINE
  5
1FF
330
1F
100
AcDbEntity
  8
0
  6
SLD-Durchgehend
 62
     8
370
     0
100
AcDbLine
 10
78.9712659049
 20
220.1297934991
 30
0.0
 11
79.2212664115
 21
220.1297934991
 31
0.0
  0
LINE
  5
200
330
1F
100
AcDbEntity
  8
0
  6
SLD-Durchgehend
 62
     8
370
     0
100
AcDbLine
 10
94.9712666649
 20
220.1297934991
 30
0.0
 11
94.7212661582
 21
220.1297934991
 31
0.0
  0
INSERT
  5
201
330
1F
100
AcDbEntity
  8
0
  6
Continuous
 62
     7
100
AcDbBlockReference
  2
Pfeil
 10
87.1514285714
 20
233.5621428571
 30
0.0
 50
270.0
  0
INSERT
  5
202
330
1F
100
AcDbEntity
  8
0
  6
Continuous
 62
     7
100
AcDbBlockReference
  2
Text Abluft
 10
118.2057808955
 20
188.6723620341
 30
0.0
  0
LEADER
  5
204
330
1F
100
AcDbEntity
  8
0
  6
Continuous
 62
     7
100
AcDbLeader
  3
SLDDIMSTYLE0
 76
     2
 10
88.0689348595
 20
171.6297909003
 30
0.0
 10
118.2057808955
 20
188.6723620341
 30
0.0
  0
INSERT
  5
205
330
1F
100
AcDbEntity
  8
0
  6
Continuous
 62
     7
100
AcDbBlockReference
  2
Text Zuluft
 10
134.2558394368
 20
139.1742583574
 30
0.0
  0
LEADER
  5
206
330
1F
100
AcDbEntity
  8
0
  6
Continuous
 62
     7
100
AcDbLeader
  3
SLDDIMSTYLE0
 76
     2
 10
106.2212662849
 20
123.1955924966
 30
0.0
 10
134.2558394368
 20
139.1742583574
 30
0.0
  0
INSERT
  5
207
330
1F
100
AcDbEntity
  8
0
  6
Continuous
 62
     7
100
AcDbBlockReference
  2
Pfeil
 10
110.6616093122
 20
123.331728732
 30
0.0
  0
HATCH
  5
208
330
1F
100
AcDbEntity
  8
0
  6
SLD-Durchgehend
 62
     7
370
     0
100
AcDbHatch
 10
0.0
 20
0.0
 30
0.0
210
0.0
220
0.0
230
1.0
  2
ANSI31
 70
     0
 71
     0
 91
        1
 92
        0
 93
       14
 72
     1
 10
85.69446588367926
 20
93.42979090069902
 11
78.76810845221613
 21
93.42979088089018
 72
     4
 94
        3
 73
     1
 74
     0
 95
        9
 96
        5
 40
0.6697266590794686
 40
0.6697266590794686
 40
0.6697266590794686
 40
0.6697266590794686
 40
0.7194369412990084
 40
0.854161740123667
 40
0.854161740123667
 40
0.854161740123667
 40
0.854161740123667
 10
78.76810845221613
 20
93.42979088089018
 42
1.0
 10
77.60988639461856
 20
93.16532832512591
 42
1.0
 10
73.84345440799851
 20
91.49277593684008
 42
1.0
 10
72.93145716498547
 20
86.47015078248097
 42
1.0
 10
72.91491653392876
 20
82.59259910820005
 42
1.0
 72
     1
 10
72.91491653392876
 20
82.59259910820005
 11
72.92126628488683
 21
82.59556004569767
 72
     1
 10
72.92126628488683
 20
82.59556004569767
 11
75.42126628488683
 21
81.42979090031017
 72
     1
 10
75.42126628488683
 20
81.42979090031017
 11
75.42126628488683
 21
75.42979090031015
 72
     1
 10
75.42126628488683
 20
75.42979090031015
 11
78.62126628488683
 21
75.42979090031015
 72
     1
 10
78.62126628488683
 20
75.42979090031015
 11
78.62126628488683
 21
89.42979090031017
 72
     1
 10
78.62126628488683
 20
89.42979090031017
 11
83.72126628488682
 21
92.49418005735072
 72
     1
 10
83.72126628488682
 20
92.49418005735072
 11
88.82126628488682
 21
89.42979090031017
 72
     1
 10
88.82126628488682
 20
89.42979090031017
 11
88.82126628488683
 21
75.42979090031015
 72
     1
 10
88.82126628488683
 20
75.42979090031015
 11
92.02126628488682
 21
75.42979090031015
 72
     1
 10
92.02126628488682
 20
75.42979090031015
 11
92.02126628488682
 21
81.42979090031017
 72
     1
 10
92.02126628488682
 20
81.42979090031017
 11
92.96384928696219
 21
81.86932457273383
 72
     4
 94
        3
 73
     1
 74
     0
 95
        9
 96
        5
 40
0.3585367394462661
 40
0.3585367394462661
 40
0.3585367394462661
 40
0.3585367394462661
 40
0.4655503411592212
 40
0.5841414848765853
 40
0.5841414848765853
 40
0.5841414848765853
 40
0.5841414848765853
 10
92.96384928696231
 20
81.86932457273234
 42
1.0
 10
92.72172501147558
 20
84.83935494106602
 42
1.0
 10
96.09575759371303
 20
90.99430015709177
 42
1.0
 10
89.17770200577037
 20
92.93300913468065
 42
1.0
 10
85.69446588367926
 20
93.42979090069902
 42
1.0
 97
        0
 75
     0
 76
     1
 52
90.0
 41
1.0
 77
     0
 78
     1
 53
135.0000000000002
 43
0.0
 44
0.0
 45
-2.245064030267281
 46
-2.245064030267296
 79
     0
 98
        1
 10
0.0
 20
0.0
  0
DIMENSION
  5
209
330
1F
100
AcDbEntity
  8
0
  6
SLD-Durchgehend
 62
     7
370
     0
100
AcDbDimension
  2
_D
 10
57.7508563571
 20
74.7297909003
 30
0.0
 11
57.7508563571
 21
81.0797909003
 31
0.0
 70
   160
  1
<>
 71
     2
 42
-1.0
  3
SLDDIMSTYLE1
100
AcDbAlignedDimension
 13
77.7212662849
 23
87.4297909003
 33
0.0
 14
76.6483548739
 24
74.7297909003
 34
0.0
 50
90.0
100
AcDbRotatedDimension
  0
DIMENSION
  5
214
330
1F
100
AcDbEntity
  8
0
  6
SLD-Durchgehend
 62
     7
370
     0
100
AcDbDimension
  2
_D_1
 10
47.5960070755
 20
74.7297909003
 30
0.0
 11
47.5960070755
 21
123.6797909003
 31
0.0
 70
   160
  1
<>
 71
     2
 42
-1.0
  3
SLDDIMSTYLE2
100
AcDbAlignedDimension
 13
70.4712662849
 23
172.6297909003
 33
0.0
 14
97.2941776959
 24
74.7297909003
 34
0.0
 50
90.0
100
AcDbRotatedDimension
  0
DIMENSION
  5
21F
330
1F
100
AcDbEntity
  8
0
  6
SLD-Durchgehend
 62
     7
370
     0
100
AcDbDimension
  2
_D_2
 10
135.7212662849
 20
123.7297909003
 30
0.0
 11
135.7212662849
 21
99.2297909003
 31
0.0
 70
   160
  1
<>
 71
     2
 42
-1.0
  3
SLDDIMSTYLE1
100
AcDbAlignedDimension
 13
97.2941776959
 23
74.7297909003
 33
0.0
 14
131.1256001764
 24
123.7297909003
 34
0.0
 50
90.0
100
AcDbRotatedDimension
  0
DIMENSION
  5
229
330
1F
100
AcDbEntity
  8
0
  6
SLD-Durchgehend
 62
     7
370
     0
100
AcDbDimension
  2
_D_3
 10
107.7212662849
 20
60.1696969047
 30
0.0
 11
95.7212662849
 21
60.1696969047
 31
0.0
 70
   160
  1
<>
 71
     2
 42
-1.0
  3
SLDDIMSTYLE1
100
AcDbAlignedDimension
 13
83.7212662849
 23
73.4297909003
 33
0.0
 14
107.7212662849
 24
74.7297909003
 34
0.0
100
AcDbRotatedDimension
  0
DIMENSION
  5
233
330
1F
100
AcDbEntity
  8
0
  6
SLD-Durchgehend
 62
     7
370
     0
100
AcDbDimension
  2
_D_4
 10
89.7212662849
 20
67.1468825316
 30
0.0
 11
83.7212662849
 21
67.1468825316
 31
0.0
 70
   160
  1
M<>
 71
     2
 42
-1.0
  3
SLDDIMSTYLE1
100
AcDbAlignedDimension
 13
77.7212662849
 23
75.4297909003
 33
0.0
 14
89.7212662849
 24
75.4297909003
 34
0.0
100
AcDbRotatedDimension
  0
DIMENSION
  5
23E
330
1F
100
AcDbEntity
  8
0
  6
SLD-Durchgehend
 62
     7
370
     0
100
AcDbDimension
  2
_D_5
 10
35.927895156
 20
220.6297909003
 30
0.0
 11
35.927895156
 21
147.6797909003
 31
0.0
 70
   160
  1
<>
 71
     2
 42
-1.0
  3
SLDDIMSTYLE2
100
AcDbAlignedDimension
 13
76.6483548739
 23
74.7297909003
 33
0.0
 14
79.4712662849
 24
220.6297909003
 34
0.0
 50
90.0
100
AcDbRotatedDimension
  0
DIMENSION
  5
248
330
1F
100
AcDbEntity
  8
0
  6
SLD-Durchgehend
 62
     7
370
     0
100
AcDbDimension
  2
_D_6
 10
66.2212662849
 20
49.6224741208
 30
0.0
 11
83.7212662849
 21
49.6224741208
 31
0.0
 70
   160
  1
%%c<>
 71
     2
 42
-1.0
  3
SLDDIMSTYLE1
100
AcDbAlignedDimension
 13
107.7212662849
 23
74.7297909003
 33
0.0
 14
66.2212662849
 24
74.7297909003
 34
0.0
100
AcDbRotatedDimension
  0
DIMENSION
  5
253
330
1F
100
AcDbEntity
  8
0
  6
SLD-Durchgehend
 62
     7
370
     0
100
AcDbDimension
  2
_D_7
 10
116.0402059901
 20
74.7297909003
 30
0.0
 11
116.0402059901
 21
82.6698189284
 31
0.0
 70
   160
  1
<>
 71
     2
 42
-1.0
  3
SLDDIMSTYLE1
100
AcDbAlignedDimension
 13
97.2941776959
 23
89.7297909003
 33
0.0
 14
97.2941776959
 24
74.7297909003
 34
0.0
 50
90.0
100
AcDbRotatedDimension
  0
LINE
  5
25D
330
1F
100
AcDbEntity
  8
0
  6
SLD-Durchgehend
 62
     7
370
     0
100
AcDbLine
 10
77.7212661657
 20
75.4297908754
 30
0.0
 11
77.7212661657
 21
87.4297907468
 31
0.0
  0
LINE
  5
25E
330
1F
100
AcDbEntity
  8
0
  6
SLD-Durchgehend
 62
     7
370
     0
100
AcDbLine
 10
89.72126627
 20
87.4297907468
 30
0.0
 11
89.72126627
 21
75.4297908754
 31
0.0
  0
LINE
  5
25F
330
1F
100
AcDbEntity
  8
0
  6
SLD-Durchgehend
 62
     7
370
     0
100
AcDbLine
 10
88.8212662854
 20
87.4297907468
 30
0.0
 11
89.72126627
 21
87.4297907468
 31
0.0
  0
LINE
  5
260
330
1F
100
AcDbEntity
  8
0
  6
SLD-Durchgehend
 62
     7
370
     0
100
AcDbLine
 10
77.7212661657
 20
87.4297907468
 30
0.0
 11
78.6212664995
 21
87.4297907468
 31
0.0
  0
LINE
  5
261
330
1F
100
AcDbEntity
  8
0
  6
SLD-Durchgehend
 62
     7
370
     0
100
AcDbLine
 10
88.8212323189
 20
87.4297907468
 30
0.0
 11
78.6212664995
 21
87.4297907468
 31
0.0
  0
LINE
  5
262
330
1F
100
AcDbEntity
  8
0
  6
SLD-Punktstrich
 62
     7
370
     0
100
AcDbLine
 10
86.9712662849
 20
219.3211303205
 30
0.0
 11
86.9712662849
 21
72.6536489924
 31
0.0
  0
LINE
  5
263
330
1F
100
AcDbEntity
  8
0
  6
SLD-Punktstrich
 62
     7
370
     0
100
AcDbLine
 10
83.7212662849
 20
73.4297909003
 30
0.0
 11
83.7212662849
 21
94.001109876
 31
0.0
  0
ARC
  5
264
330
1F
100
AcDbEntity
  8
0
  6
SLD-Durchgehend
 62
     7
370
    15
100
AcDbCircle
 10
107.5212662849
 20
254.4001498499
 30
0.0
 40
0.2000000000000028
100
AcDbArc
 50
270.0
 51
0.0
  0
ARC
  5
265
330
1F
100
AcDbEntity
  8
0
  6
SLD-Durchgehend
 62
     7
370
    15
100
AcDbCircle
 10
107.5212662849
 20
264.8001498499
 30
0.0
 40
0.2000000000000028
100
AcDbArc
 50
0.0
 51
90.0
  0
ARC
  5
266
330
1F
100
AcDbEntity
  8
0
  6
SLD-Durchgehend
 62
     7
370
    15
100
AcDbCircle
 10
107.4212662849
 20
264.8001498499
 30
0.0
 40
0.2000000000000028
100
AcDbArc
 50
90.0
 51
180.0
  0
ARC
  5
267
330
1F
100
AcDbEntity
  8
0
  6
SLD-Durchgehend
 62
     7
370
    15
100
AcDbCircle
 10
107.4212662849
 20
254.4001498499
 30
0.0
 40
0.2000000000000028
100
AcDbArc
 50
180.0
 51
270.0
  0
LINE
  5
268
330
1F
100
AcDbEntity
  8
0
  6
SLD-Durchgehend
 62
     7
370
    15
100
AcDbLine
 10
107.4212660047
 20
254.2001497098
 30
0.0
 11
107.5212658349
 21
254.2001497098
 31
0.0
  0
LINE
  5
269
330
1F
100
AcDbEntity
  8
0
  6
SLD-Durchgehend
 62
     7
370
    15
100
AcDbLine
 10
107.5212658349
 20
265.0001499899
 30
0.0
 11
107.4212660047
 21
265.0001499899
 31
0.0
  0
ARC
  5
26A
330
1F
100
AcDbEntity
  8
0
  6
SLD-Durchgehend
 62
     7
370
    15
100
AcDbCircle
 10
107.0212662849
 20
264.4841764262
 30
0.0
 40
0.2000000000000351
100
AcDbArc
 50
318.1133831664
 51
0.0
  0
ARC
  5
26B
330
1F
100
AcDbEntity
  8
0
  6
SLD-Durchgehend
 62
     7
370
    15
100
AcDbCircle
 10
107.0212662849
 20
254.7161232735
 30
0.0
 40
0.2000000000000028
100
AcDbArc
 50
0.0
 51
41.8866168336
  0
LINE
  5
26C
330
1F
100
AcDbEntity
  8
0
  6
SLD-Durchgehend
 62
     7
370
    15
100
AcDbLine
 10
107.7212654951
 20
264.8001493983
 30
0.0
 11
107.7212654951
 21
254.4001498357
 31
0.0
  0
LINE
  5
26D
330
1F
100
AcDbEntity
  8
0
  6
SLD-Durchgehend
 62
     7
370
    15
100
AcDbLine
 10
107.2212663445
 20
254.4001503014
 30
0.0
 11
107.2212663445
 21
255.0724571668
 31
0.0
  0
LINE
  5
26E
330
1F
100
AcDbEntity
  8
0
  6
SLD-Durchgehend
 62
     7
370
    15
100
AcDbLine
 10
107.2212663445
 20
264.1278425329
 30
0.0
 11
107.2212663445
 21
264.800149864
 31
0.0
  0
CIRCLE
  5
26F
330
1F
100
AcDbEntity
  8
0
  6
SLD-Durchgehend
 62
     7
370
    15
100
AcDbCircle
 10
83.7212662849
 20
259.6001498499
 30
0.0
 40
5.099999999999994
  0
CIRCLE
  5
270
330
1F
100
AcDbEntity
  8
0
  6
SLD-Durchgehend
 62
     7
370
    15
100
AcDbCircle
 10
72.9212662849
 20
259.6001498499
 30
0.0
 40
2.5
  0
CIRCLE
  5
271
330
1F
100
AcDbEntity
  8
0
  6
SLD-Durchgehend
 62
     7
370
    15
100
AcDbCircle
 10
94.5212662849
 20
259.6001498499
 30
0.0
 40
2.5
  0
LINE
  5
272
330
1F
100
AcDbEntity
  8
0
  6
SLD-Durchgehend
 62
     7
370
    15
100
AcDbLine
 10
76.64835462
 20
241.6001506247
 30
0.0
 11
97.2941779497
 21
241.6001506247
 31
0.0
  0
LINE
  5
273
330
1F
100
AcDbEntity
  8
0
  6
SLD-Durchgehend
 62
     7
370
    15
100
AcDbLine
 10
97.2941779497
 20
277.600149075
 30
0.0
 11
76.64835462
 21
277.600149075
 31
0.0
  0
CIRCLE
  5
274
330
1F
100
AcDbEntity
  8
0
  6
SLD-Durchgehend
 62
     7
370
    15
100
AcDbCircle
 10
83.7212662849
 20
259.6001498499
 30
0.0
 40
14.42
  0
ARC
  5
275
330
1F
100
AcDbEntity
  8
0
  6
SLD-Durchgehend
 62
     7
370
    15
100
AcDbCircle
 10
86.9712662849
 20
259.6001498499
 30
0.0
 40
20.75000000000002
100
AcDbArc
 50
299.8340588284
 51
60.1659411716
  0
ARC
  5
276
330
1F
100
AcDbEntity
  8
0
  6
SLD-Durchgehend
 62
     7
370
    15
100
AcDbCircle
 10
86.9712662849
 20
259.6001498499
 30
0.0
 40
20.75000000000002
100
AcDbArc
 50
119.8340588284
 51
240.1659411716
  0
ARC
  5
277
330
1F
100
AcDbEntity
  8
0
  6
SLD-Durchgehend
 62
     7
370
    15
100
AcDbCircle
 10
86.9712662849
 20
259.6001498499
 30
0.0
 40
20.74999999999995
100
AcDbArc
 50
60.1659411716
 51
119.8340588284
  0
ARC
  5
278
330
1F
100
AcDbEntity
  8
0
  6
SLD-Durchgehend
 62
     7
370
    15
100
AcDbCircle
 10
86.9712662849
 20
259.6001498499
 30
0.0
 40
20.75000000000002
100
AcDbArc
 50
240.1659411716
 51
299.8340588284
  0
LINE
  5
279
330
1F
100
AcDbEntity
  8
0
  6
SLD-Durchgehend
 62
     8
370
     0
100
AcDbLine
 10
107.5212658349
 20
254.2001497098
 30
0.0
 11
107.5212658349
 21
256.7261281986
 31
0.0
  0
LINE
  5
27A
330
1F
100
AcDbEntity
  8
0
  6
SLD-Durchgehend
 62
     8
370
     0
100
AcDbLine
 10
107.5212658349
 20
262.4741715011
 30
0.0
 11
107.5212658349
 21
265.0001499899
 31
0.0
  0
LINE
  5
27B
330
1F
100
AcDbEntity
  8
0
  6
SLD-Durchgehend
 62
     8
370
     0
100
AcDbLine
 10
107.4212660047
 20
265.0001499899
 30
0.0
 11
107.4212660047
 21
263.1158290063
 31
0.0
  0
LINE
  5
27C
330
1F
100
AcDbEntity
  8
0
  6
SLD-Durchgehend
 62
     8
370
     0
100
AcDbLine
 10
107.4212660047
 20
256.0844706934
 30
0.0
 11
107.4212660047
 21
254.2001497098
 31
0.0
  0
CIRCLE
  5
27D
330
1F
100
AcDbEntity
  8
0
  6
SLD-Punktstrich
 62
     7
370
     0
100
AcDbCircle
 10
83.7212662849
 20
259.6001498499
 30
0.0
 40
10.79999999999999
  0
DIMENSION
  5
27E
330
1F
100
AcDbEntity
  8
0
  6
SLD-Durchgehend
 62
     7
370
     0
100
AcDbDimension
  2
_D_8
 10
50.2212662849
 20
277.6001498499
 30
0.0
 11
50.2212662849
 21
259.6001498499
 31
0.0
 70
   160
  1
SW<>
 71
     2
 42
-1.0
  3
SLDDIMSTYLE1
100
AcDbAlignedDimension
 13
76.6483548739
 23
241.6001498499
 33
0.0
 14
76.6483548739
 24
277.6001498499
 34
0.0
 50
90.0
100
AcDbRotatedDimension
  0
DIMENSION
  5
289
330
1F
100
AcDbEntity
  8
0
  6
SLD-Durchgehend
 62
     7
370
     0
100
AcDbDimension
  2
_D_9
 10
61.425689297
 20
257.1001498499
 30
0.0
 11
61.425689297
 21
259.6001498499
 31
0.0
 70
   160
  1
%%c<>
 71
     2
 42
-1.0
  3
SLDDIMSTYLE3
100
AcDbAlignedDimension
 13
72.9212662849
 23
262.1001498499
 33
0.0
 14
72.9212662849
 24
257.1001498499
 34
0.0
 50
90.0
100
AcDbRotatedDimension
  0
DIMENSION
  5
297
330
1F
100
AcDbEntity
  8
0
  6
SLD-Durchgehend
 62
     7
370
     0
100
AcDbDimension
  2
_D_10
 10
94.5212662849
 20
284.4609528761
 30
0.0
 11
83.9910048861
 21
284.4609528761
 31
0.0
 70
   160
  1
<>
 71
     2
 42
-1.0
  3
SLDDIMSTYLE1
100
AcDbAlignedDimension
 13
72.9212662849
 23
264.6001498499
 33
0.0
 14
94.5212662849
 24
264.6001498499
 34
0.0
100
AcDbRotatedDimension
  0
INSERT
  5
2AC
330
1F
100
AcDbEntity
  8
0
  6
SLD-Durchgehend
 62
     7
370
     0
100
AcDbBlockReference
  2
SW_CENTERMARKSYMBOL_0
 10
72.9212662849
 20
259.6001498499
 30
0.0
  0
INSERT
  5
2B8
330
1F
100
AcDbEntity
  8
0
  6
SLD-Durchgehend
 62
     7
370
     0
100
AcDbBlockReference
  2
SW_CENTERMARKSYMBOL_1
 10
94.5212662849
 20
259.6001498499
 30
0.0
  0
INSERT
  5
2C4
330
1F
100
AcDbEntity
  8
0
  6
SLD-Durchgehend
 62
     7
370
     0
100
AcDbBlockReference
  2
SW_CENTERMARKSYMBOL_2
 10
83.7212662849
 20
259.6001498499
 30
0.0
  0
INSERT
  5
2D0
330
1F
100
AcDbEntity
  8
0
  6
SLD-Durchgehend
 62
     7
370
     0
100
AcDbBlockReference
  2
SW_CENTERMARKSYMBOL_3
 10
86.9712662849
 20
259.6001498499
 30
0.0
  0
ARC
  5
2D1
330
1F
100
AcDbEntity
  8
0
  6
SLD-Durchgehend
 62
     7
370
     0
100
AcDbCircle
 10
83.7212662849
 20
259.6001498499
 30
0.0
 40
15.49999967962504
100
AcDbArc
 50
75.0
 51
345.0
  0
ARC
  5
2D2
330
1F
100
AcDbEntity
  8
0
  6
SLD-Durchgehend
 62
     7
370
     0
100
AcDbCircle
 10
83.7212662849
 20
259.6001498499
 30
0.0
 40
5.999999985098836
100
AcDbArc
 50
75.0
 51
345.0
  0
LINE
  5
2D3
330
1F
100
AcDbEntity
  8
0
  6
SLD-Durchgehend
 62
     7
370
    15
100
AcDbLine
 10
176.5852381328
 20
275.6530745865
 30
0.0
 11
176.5852381328
 21
275.6959328787
 31
0.0
  0
LINE
  5
2D4
330
1F
100
AcDbEntity
  8
0
  6
SLD-Durchgehend
 62
     7
370
    15
100
AcDbLine
 10
171.1852383732
 20
275.6959327776
 30
0.0
 11
171.1852383732
 21
275.6530744854
 31
0.0
  0
LINE
  5
2D5
330
1F
100
AcDbEntity
  8
0
  6
SLD-Durchgehend
 62
     7
370
    15
100
AcDbLine
 10
188.8475754883
 20
273.5216246866
 30
0.0
 11
182.496617585
 21
275.2476789602
 31
0.0
  0
LINE
  5
2D6
330
1F
100
AcDbEntity
  8
0
  6
SLD-Durchgehend
 62
     7
370
    15
100
AcDbLine
 10
181.0398828654
 20
254.2445315694
 30
0.0
 11
183.4317992838
 21
253.5944599394
 31
0.0
  0
LINE
  5
2D7
330
1F
100
AcDbEntity
  8
0
  6
SLD-Durchgehend
 62
     7
370
    15
100
AcDbLine
 10
177.0808413805
 20
255.320514213
 30
0.0
 11
180.0662618579
 21
254.5091408971
 31
0.0
  0
LINE
  5
2D8
330
1F
100
AcDbEntity
  8
0
  6
SLD-Durchgehend
 62
     7
370
    15
100
AcDbLine
 10
186.2195130969
 20
272.0752061202
 30
0.0
 11
186.2183139821
 21
272.1657204172
 31
0.0
  0
LINE
  5
2D9
330
1F
100
AcDbEntity
  8
0
  6
SLD-Durchgehend
 62
     7
370
    15
100
AcDbLine
 10
179.8765076315
 20
274.1881345371
 30
0.0
 11
179.8765076315
 21
274.1016731394
 31
0.0
  0
LINE
  5
2DA
330
1F
100
AcDbEntity
  8
0
  6
SLD-Durchgehend
 62
     7
370
    15
100
AcDbLine
 10
180.0662618579
 20
254.5091408971
 30
0.0
 11
181.0398828654
 21
254.2445315694
 31
0.0
  0
LINE
  5
2DB
330
1F
100
AcDbEntity
  8
0
  6
SLD-Durchgehend
 62
     7
370
    15
100
AcDbLine
 10
138.7996995859
 20
282.6416802057
 30
0.0
 11
134.5987148785
 21
283.7834178329
 31
0.0
  0
LINE
  5
2DC
330
1F
100
AcDbEntity
  8
0
  6
SLD-Durchgehend
 62
     7
370
    15
100
AcDbLine
 10
142.3373726524
 20
281.6802164694
 30
0.0
 11
139.6841194999
 21
282.4013138239
 31
0.0
  0
LINE
  5
2DD
330
1F
100
AcDbEntity
  8
0
  6
SLD-Durchgehend
 62
     7
370
    15
100
AcDbLine
 10
145.8750424243
 20
280.7187536285
 30
0.0
 11
143.2217892717
 21
281.439850983
 31
0.0
  0
LINE
  5
2DE
330
1F
100
AcDbEntity
  8
0
  6
SLD-Durchgehend
 62
     7
370
    15
100
AcDbLine
 10
149.4127154909
 20
279.7572898921
 30
0.0
 11
146.7594623383
 21
280.4783872467
 31
0.0
  0
LINE
  5
2DF
330
1F
100
AcDbEntity
  8
0
  6
SLD-Durchgehend
 62
     7
370
    15
100
AcDbLine
 10
150.8070748027
 20
279.3783329087
 30
0.0
 11
150.2971354049
 21
279.5169235103
 31
0.0
  0
LINE
  5
2E0
330
1F
100
AcDbEntity
  8
0
  6
SLD-Durchgehend
 62
     7
370
    15
100
AcDbLine
 10
131.4515325694
 20
272.203467385
 30
0.0
 11
147.6598924936
 21
267.7983824607
 31
0.0
  0
SPLINE
  5
2E1
330
1F
100
AcDbEntity
  8
0
  6
SLD-Durchgehend
 62
     7
370
    15
100
AcDbSpline
210
0.0
220
0.0
230
1.0
 70
     8
 71
     3
 72
    12
 73
     8
 74
     0
 42
0.000000001
 43
0.00000001
 40
0.0
 40
0.0
 40
0.0
 40
0.0
 40
0.1157623917596192
 40
0.3491840198326755
 40
0.5899042976613975
 40
0.8421059382175581
 40
1.0
 40
1.0
 40
1.0
 40
1.0
 10
134.4584652447419
 20
283.7968420662618
 30
0.0
 10
134.3969117426962
 20
283.808972939602
 30
0.0
 10
134.2112426410787
 20
283.8455643321315
 30
0.0
 10
133.8800374464554
 20
283.7779198778279
 30
0.0
 10
133.4794900883181
 20
283.6043212644656
 30
0.0
 10
133.1220981580308
 20
283.3634760744866
 30
0.0
 10
132.9019332155801
 20
283.1405900936136
 30
0.0
 10
132.8171658385328
 20
283.054775068892
 30
0.0
  0
SPLINE
  5
2E2
330
1F
100
AcDbEntity
  8
0
  6
SLD-Durchgehend
 62
     7
370
    15
100
AcDbSpline
210
0.0
220
0.0
230
1.0
 70
     8
 71
     3
 72
    15
 73
    11
 74
     0
 42
0.000000001
 43
0.00000001
 40
0.0
 40
0.0
 40
0.0
 40
0.0
 40
0.0799683505630895
 40
0.2329717962373213
 40
0.386736263416507
 40
0.5415246317717484
 40
0.6972413029234716
 40
0.8513428032417681
 40
0.9842025169343684
 40
1.0
 40
1.0
 40
1.0
 40
1.0
 10
130.0916196553127
 20
275.3742673790508
 30
0.0
 10
130.0932520036046
 20
275.2463183723484
 30
0.0
 10
130.0980075238941
 20
274.8735645302552
 30
0.0
 10
130.1513042736799
 20
274.3005774758955
 30
0.0
 10
130.2717212119976
 20
273.6891046035579
 30
0.0
 10
130.4543913835421
 20
273.1620892635943
 30
0.0
 10
130.6982193730842
 20
272.7258804979057
 30
0.0
 10
130.9977926378926
 20
272.423681098049
 30
0.0
 10
131.2349048480629
 20
272.2590927591216
 30
0.0
 10
131.3678750666544
 20
272.2339723740891
 30
0.0
 10
131.3820055280262
 20
272.2313028843785
 30
0.0
  0
LINE
  5
2E3
330
1F
100
AcDbEntity
  8
0
  6
SLD-Durchgehend
 62
     7
370
    15
100
AcDbLine
 10
130.0027946518
 20
280.7608144336
 30
0.0
 11
128.9923694916
 21
276.5602310396
 31
0.0
  0
ARC
  5
2E4
330
1F
100
AcDbEntity
  8
0
  6
SLD-Durchgehend
 62
     7
370
    15
100
AcDbCircle
 10
130.2458598886
 20
280.702346509
 30
0.0
 40
0.2499999999999923
100
AcDbArc
 50
134.305033619
 51
166.4747984159
  0
LINE
  5
2E5
330
1F
100
AcDbEntity
  8
0
  6
SLD-Durchgehend
 62
     7
370
    15
100
AcDbLine
 10
132.092089201
 20
282.8536666968
 30
0.0
 11
130.0712388806
 21
280.881254832
 31
0.0
  0
ARC
  5
2E6
330
1F
100
AcDbEntity
  8
0
  6
SLD-Durchgehend
 62
     7
370
    15
100
AcDbCircle
 10
129.235434732
 20
276.5017632025
 30
0.0
 40
0.2500000000000246
100
AcDbArc
 50
166.4747984159
 51
204.3932128691
  0
LINE
  5
2E7
330
1F
100
AcDbEntity
  8
0
  6
SLD-Durchgehend
 62
     7
370
    15
100
AcDbLine
 10
129.0077509087
 20
276.3985142054
 30
0.0
 11
130.0181760689
 21
274.1703426885
 31
0.0
  0
LINE
  5
2E8
330
1F
100
AcDbEntity
  8
0
  6
SLD-Durchgehend
 62
     7
370
    15
100
AcDbLine
 10
132.6543336313
 20
282.8284789056
 30
0.0
 11
132.3322753135
 21
282.9160074555
 31
0.0
  0
ARC
  5
2E9
330
1F
100
AcDbEntity
  8
0
  6
SLD-Durchgehend
 62
     7
370
    15
100
AcDbCircle
 10
132.2667102018
 20
282.6747583667
 30
0.0
 40
0.2499999999999931
100
AcDbArc
 50
74.7954868413
 51
134.305033619
  0
ARC
  5
2EA
330
1F
100
AcDbEntity
  8
0
  6
SLD-Durchgehend
 62
     7
370
    15
100
AcDbCircle
 10
130.2458598886
 20
274.2735917537
 30
0.0
 40
0.2500000000000006
100
AcDbArc
 50
204.3932128691
 51
254.7954868413
  0
LINE
  5
2EB
330
1F
100
AcDbEntity
  8
0
  6
SLD-Durchgehend
 62
     7
370
    15
100
AcDbLine
 10
182.7287231346
 20
265.3553059626
 30
0.0
 11
182.8442135707
 21
265.5334336071
 31
0.0
  0
LINE
  5
2EC
330
1F
100
AcDbEntity
  8
0
  6
SLD-Durchgehend
 62
     7
370
    15
100
AcDbLine
 10
164.2686079559
 20
280.2534750538
 30
0.0
 11
155.4244252895
 21
282.6571343946
 31
0.0
  0
LINE
  5
2ED
330
1F
100
AcDbEntity
  8
0
  6
SLD-Durchgehend
 62
     7
370
    15
100
AcDbLine
 10
149.982422669
 20
262.6334701145
 30
0.0
 11
158.8266053354
 21
260.2298107737
 31
0.0
  0
LINE
  5
2EE
330
1F
100
AcDbEntity
  8
0
  6
SLD-Durchgehend
 62
     7
370
    15
100
AcDbLine
 10
153.4033899737
 20
282.1281855475
 30
0.0
 11
152.9274467021
 21
281.791361878
 31
0.0
  0
LINE
  5
2EF
330
1F
100
AcDbEntity
  8
0
  6
SLD-Durchgehend
 62
     7
370
    15
100
AcDbLine
 10
148.2671712214
 20
264.6440364507
 30
0.0
 11
148.5071509101
 21
264.1126406732
 31
0.0
  0
LINE
  5
2F0
330
1F
100
AcDbEntity
  8
0
  6
SLD-Durchgehend
 62
     7
370
    15
100
AcDbLine
 10
198.2744838014
 20
271.0114066568
 30
0.0
 11
189.2534186347
 21
273.463138871
 31
0.0
  0
LINE
  5
2F1
330
1F
100
AcDbEntity
  8
0
  6
SLD-Durchgehend
 62
     7
370
    15
100
AcDbLine
 10
183.8114160142
 20
253.4394745909
 30
0.0
 11
192.8324811809
 21
250.9877423767
 31
0.0
  0
LINE
  5
2F2
330
1F
100
AcDbEntity
  8
0
  6
SLD-Durchgehend
 62
     7
370
    15
100
AcDbLine
 10
182.3991783038
 20
275.3259745244
 30
0.0
 11
164.3570479705
 21
280.2294389528
 31
0.0
  0
LINE
  5
2F3
330
1F
100
AcDbEntity
  8
0
  6
SLD-Durchgehend
 62
     7
370
    15
100
AcDbLine
 10
158.91504535
 20
260.2057746728
 30
0.0
 11
176.9571756833
 21
255.3023102443
 31
0.0
  0
LINE
  5
2F4
330
1F
100
AcDbEntity
  8
0
  6
SLD-Durchgehend
 62
     7
370
    15
100
AcDbLine
 10
188.4647448514
 20
256.2790700526
 30
0.0
 11
188.4939133723
 21
256.3075394232
 31
0.0
  0
LINE
  5
2F5
330
1F
100
AcDbEntity
  8
0
  6
SLD-Durchgehend
 62
     7
370
    15
100
AcDbLine
 10
188.4647448514
 20
255.2405789138
 30
0.0
 11
188.4939133723
 21
255.2690482844
 31
0.0
  0
LWPOLYLINE
  5
2F6
330
1F
100
AcDbEntity
  8
0
  6
SLD-Durchgehend
 62
     7
370
    15
100
AcDbPolyline
 90
        6
 70
   128
 43
0.0
 10
175.1453166595
 20
276.9258069546
 10
175.6620444477
 20
276.7429888528
 10
176.082985213
 20
276.5037234211
 10
176.3854444524
 20
276.2209099501
 10
176.5531186532
 20
275.9097943056
 10
176.5852381328
 20
275.6959328787
  0
ARC
  5
2F7
330
1F
100
AcDbEntity
  8
0
  6
SLD-Durchgehend
 62
     7
370
    15
100
AcDbCircle
 10
172.3348555113
 20
275.5478246053
 30
0.0
 40
1.159118455935409
100
AcDbArc
 50
119.2777653433
 51
172.6588727847
  0
LWPOLYLINE
  5
2F8
330
1F
100
AcDbEntity
  8
0
  6
SLD-Durchgehend
 62
     7
370
    15
100
AcDbPolyline
 90
       10
 70
   128
 43
0.0
 10
175.0986470912
 20
276.9659726097
 10
174.5356403974
 20
277.0781729085
 10
173.9375718271
 20
277.1204770213
 10
173.3366805807
 20
277.0906048173
 10
172.765362784
 20
276.9901663875
 10
172.2544195675
 20
276.8245760308
 10
171.8313925105
 20
276.6027616724
 10
171.5190885792
 20
276.3366810064
 10
171.3343442602
 20
276.0406784828
 10
171.2888892325
 20
275.8525863097
  0
LWPOLYLINE
  5
2F9
330
1F
100
AcDbEntity
  8
0
  6
SLD-Durchgehend
 62
     7
370
    15
100
AcDbPolyline
 90
       15
 70
   128
 43
0.0
 10
171.2880677607
 20
275.7191929725
 10
171.3799615791
 20
275.4234902928
 10
171.6078627023
 20
275.1355778082
 10
171.9585371243
 20
274.8824952315
 10
172.4130815054
 20
274.67788621
 10
172.9469899494
 20
274.5327813352
 10
173.5314781852
 20
274.4550035552
 10
174.1350403195
 20
274.4487450827
 10
174.7251343763
 20
274.5143440049
 10
175.2699493185
 20
274.6482637563
 10
175.740113579
 20
274.8432847862
 10
176.1102811212
 20
275.0888932508
 10
176.3604978098
 20
275.371847899
 10
176.4772712934
 20
275.6768954165
 10
176.4794112123
 20
275.6920390788
  0
LWPOLYLINE
  5
2FA
330
1F
100
AcDbEntity
  8
0
  6
SLD-Durchgehend
 62
     7
370
    15
100
AcDbPolyline
 90
       10
 70
   128
 43
0.0
 10
172.6251614939
 20
274.4231999618
 10
173.2098204372
 20
274.3066847499
 10
173.8308923578
 20
274.2627534611
 10
174.4548935861
 20
274.2937748286
 10
175.0481863564
 20
274.3980759559
 10
175.5787818387
 20
274.57003505
 10
176.0180789756
 20
274.8003807801
 10
176.3423949175
 20
275.0766952359
 10
176.5342440866
 20
275.3840826577
 10
176.5852381328
 20
275.6530745865
  0
ARC
  5
2FB
330
1F
100
AcDbEntity
  8
0
  6
SLD-Durchgehend
 62
     7
370
    15
100
AcDbCircle
 10
172.7788318944
 20
276.0609755988
 30
0.0
 40
1.644969187907719
100
AcDbArc
 50
194.3573515238
 51
264.6397036557
  0
ARC
  5
2FC
330
1F
100
AcDbEntity
  8
0
  6
SLD-Durchgehend
 62
     7
370
    15
100
AcDbCircle
 10
173.866356573
 20
278.4384170618
 30
0.0
 40
4.22764952264939
100
AcDbArc
 50
253.5874998607
 51
300.3495989264
  0
LWPOLYLINE
  5
2FD
330
1F
100
AcDbEntity
  8
0
  6
SLD-Durchgehend
 62
     7
370
    15
100
AcDbPolyline
 90
       13
 70
   128
 43
0.0
 10
176.0614904657
 20
275.5777166694
 10
175.9025132967
 20
275.3142802337
 10
175.6134649257
 20
275.0705811469
 10
175.2158246234
 20
274.8715613975
 10
174.7345793268
 20
274.7297256511
 10
174.1999670919
 20
274.6539860802
 10
173.6455782394
 20
274.6491019886
 10
173.1062492918
 20
274.7153797011
 10
172.6158656704
 20
274.8486554618
 10
172.2052428376
 20
275.0405542881
 10
171.9001807681
 20
275.2790187246
 10
171.7198449531
 20
275.549065856
 10
171.6750180123
 20
275.7362195784
  0
ARC
  5
2FE
330
1F
100
AcDbEntity
  8
0
  6
SLD-Durchgehend
 62
     7
370
    15
100
AcDbCircle
 10
174.9282249896
 20
275.5151813825
 30
0.0
 40
1.074997672072287
100
AcDbArc
 50
7.1281526283
 51
75.6159730776
  0
LWPOLYLINE
  5
2FF
330
1F
100
AcDbEntity
  8
0
  6
SLD-Durchgehend
 62
     7
370
    15
100
AcDbPolyline
 90
       13
 70
   128
 43
0.0
 10
174.8519669103
 20
276.6703572979
 10
174.3539401165
 20
276.7638592536
 10
173.8048884304
 20
276.7901916921
 10
173.2613113206
 20
276.7424375313
 10
172.7602545179
 20
276.6238507523
 10
172.3358629016
 20
276.4425131348
 10
172.0170603194
 20
276.2107819948
 10
171.8255687904
 20
275.9444504385
 10
171.7744419408
 20
275.6616674555
 10
171.8671618347
 20
275.3817048934
 10
172.0974109657
 20
275.1236413415
 10
172.4494965737
 20
274.9050639725
 10
172.8994264995
 20
274.740867742
  0
SPLINE
  5
300
330
1F
100
AcDbEntity
  8
0
  6
SLD-Durchgehend
 62
     7
370
    15
100
AcDbSpline
210
0.0
220
0.0
230
1.0
 70
     8
 71
     3
 72
    12
 73
     8
 74
     0
 42
0.000000001
 43
0.00000001
 40
0.0
 40
0.0
 40
0.0
 40
0.0
 40
0.2146764814852873
 40
0.4293547453177475
 40
0.6439989060104836
 40
0.8586584430276268
 40
1.0
 40
1.0
 40
1.0
 40
1.0
 10
179.905403335532
 20
274.2456314851931
 30
0.0
 10
179.8947326275103
 20
274.2326925865106
 30
0.0
 10
179.8733911228733
 20
274.2068146817207
 30
0.0
 10
179.8765372430585
 20
274.1630660935382
 30
0.0
 10
179.9062416447609
 20
274.1223366985623
 30
0.0
 10
179.9544238865074
 20
274.09180529887
 30
0.0
 10
179.9940871351585
 20
274.0792441880846
 30
0.0
 10
180.0098344612583
 20
274.0742571052197
 30
0.0
  0
ARC
  5
301
330
1F
100
AcDbEntity
  8
0
  6
SLD-Durchgehend
 62
     7
370
    15
100
AcDbCircle
 10
182.0989720747
 20
272.4245986447
 30
0.0
 40
2.850947986127286
100
AcDbArc
 50
81.9823384743
 51
140.3015928735
  0
LWPOLYLINE
  5
302
330
1F
100
AcDbEntity
  8
0
  6
SLD-Durchgehend
 62
     7
370
    15
100
AcDbPolyline
 90
       23
 70
   128
 43
0.0
 10
177.0808413805
 20
255.320514213
 10
176.7660318092
 20
255.4414294033
 10
176.3553454326
 20
255.7232389484
 10
175.990026105
 20
256.1313817125
 10
175.6749014168
 20
256.6604646997
 10
175.4141350397
 20
257.3034969332
 10
175.2111723964
 20
258.0519807194
 10
175.0686956745
 20
258.8960266023
 10
174.9885877518
 20
259.8244821032
 10
174.9719065516
 20
260.825078276
 10
175.018872873
 20
261.8845941035
 10
175.1288660445
 20
262.9890294772
 10
175.3004326168
 20
264.1237909044
 10
175.5313054868
 20
265.2738839541
 10
175.8184338888
 20
266.4241118177
 10
176.1580244677
 20
267.5592763554
 10
176.5455895247
 20
268.6643776606
 10
176.9760080847
 20
269.7248135655
 10
177.4435926143
 20
270.7265708909
 10
177.9421648671
 20
271.6564148282
 10
178.4651367274
 20
272.5020572544
 10
179.005597954
 20
273.2523245982
 10
179.556407211
 20
273.8973033672
  0
SPLINE
  5
303
330
1F
100
AcDbEntity
  8
0
  6
SLD-Durchgehend
 62
     7
370
    15
100
AcDbSpline
210
0.0
220
0.0
230
1.0
 70
     8
 71
     3
 72
    12
 73
     8
 74
     0
 42
0.000000001
 43
0.00000001
 40
0.0
 40
0.0
 40
0.0
 40
0.0
 40
0.2146817972151981
 40
0.429362333590412
 40
0.6440365032751852
 40
0.8586880165285822
 40
1.0
 40
1.0
 40
1.0
 40
1.0
 10
179.8941184686741
 20
273.958762586294
 30
0.0
 10
179.8679715331859
 20
273.9642043123475
 30
0.0
 10
179.8156778157722
 20
273.9750877324947
 30
0.0
 10
179.7293103658265
 20
273.9725104198192
 30
0.0
 10
179.6497199539201
 20
273.9555008822352
 30
0.0
 10
179.5904385877285
 20
273.9283991654246
 30
0.0
 10
179.5660779901152
 20
273.9061399358563
 30
0.0
 10
179.5564072109511
 20
273.8973033671919
 30
0.0
  0
LINE
  5
304
330
1F
100
AcDbEntity
  8
0
  6
SLD-Durchgehend
 62
     7
370
    15
100
AcDbLine
 10
179.8941184687
 20
273.9587625863
 30
0.0
 11
186.0850446878
 21
272.2762014954
 31
0.0
  0
SPLINE
  5
305
330
1F
100
AcDbEntity
  8
0
  6
SLD-Durchgehend
 62
     7
370
    15
100
AcDbSpline
210
0.0
220
0.0
230
1.0
 70
     8
 71
     3
 72
    12
 73
     8
 74
     0
 42
0.000000001
 43
0.00000001
 40
0.0
 40
0.0
 40
0.0
 40
0.0
 40
0.2146763140990725
 40
0.4293533479240308
 40
0.6439991011604111
 40
0.8586585330211689
 40
0.9999999999999999
 40
0.9999999999999999
 40
0.9999999999999999
 40
0.9999999999999999
 10
186.189543387109
 20
272.0945590854278
 30
0.0
 10
186.2002033493717
 20
272.1091144771569
 30
0.0
 10
186.2215233096358
 20
272.1382253094137
 30
0.0
 10
186.2183591696734
 20
272.1849634021614
 30
0.0
 10
186.1886421703989
 20
272.2273839532759
 30
0.0
 10
186.1404558917232
 20
272.258567330327
 30
0.0
 10
186.1007921917306
 20
272.271189980353
 30
0.0
 10
186.0850446878309
 20
272.2762014954296
 30
0.0
  0
ARC
  5
306
330
1F
100
AcDbEntity
  8
0
  6
SLD-Durchgehend
 62
     7
370
    15
100
AcDbCircle
 10
189.1030203395
 20
270.0260613522
 30
0.0
 40
3.523862811093504
100
AcDbArc
 50
100.6453054704
 51
136.69785381
  0
LWPOLYLINE
  5
307
330
1F
100
AcDbEntity
  8
0
  6
SLD-Durchgehend
 62
     7
370
    15
100
AcDbPolyline
 90
       22
 70
   128
 43
0.0
 10
183.1070683431
 20
253.8225542012
 10
182.9884816088
 20
253.9204946667
 10
182.6231622812
 20
254.3286374308
 10
182.308037593
 20
254.857720418
 10
182.0472712159
 20
255.5007526515
 10
181.8443085725
 20
256.2492364377
 10
181.7018318507
 20
257.0932823205
 10
181.621723928
 20
258.0217378214
 10
181.6050427278
 20
259.0223339942
 10
181.6520090492
 20
260.0818498217
 10
181.7620022207
 20
261.1862851954
 10
181.9335687929
 20
262.3210466226
 10
182.164441663
 20
263.4711396723
 10
182.451570065
 20
264.6213675359
 10
182.7911606439
 20
265.7565320736
 10
183.1787257008
 20
266.8616333788
 10
183.6091442608
 20
267.9220692837
 10
184.0767287905
 20
268.9238266091
 10
184.5753010433
 20
269.8536705464
 10
185.0982729036
 20
270.6993129727
 10
185.6387341302
 20
271.4495803164
 10
186.1895433871
 20
272.0945590854
  0
SPLINE
  5
308
330
1F
100
AcDbEntity
  8
0
  6
SLD-Durchgehend
 62
     7
370
    15
100
AcDbSpline
210
0.0
220
0.0
230
1.0
 70
     8
 71
     3
 72
    12
 73
     8
 74
     0
 42
0.000000001
 43
0.00000001
 40
0.0
 40
0.0
 40
0.0
 40
0.0
 40
0.2146797334341
 40
0.4293606225681557
 40
0.644035057597371
 40
0.8586877666372297
 40
1.0
 40
1.0
 40
1.0
 40
1.0
 10
186.2007606804151
 20
272.3916960143554
 30
0.0
 10
186.2269076978643
 20
272.3862008837546
 30
0.0
 10
186.2792018735216
 20
272.3752105929706
 30
0.0
 10
186.3655758052161
 20
272.3767628504286
 30
0.0
 10
186.4451800056291
 20
272.3916559821562
 30
0.0
 10
186.5044830100052
 20
272.415617157649
 30
0.0
 10
186.5288616086046
 20
272.4351378208696
 30
0.0
 10
186.5385395116898
 20
272.4428872034291
 30
0.0
  0
LINE
  5
309
330
1F
100
AcDbEntity
  8
0
  6
SLD-Durchgehend
 62
     7
370
    15
100
AcDbLine
 10
180.0098344613
 20
274.0742571052
 30
0.0
 11
186.2007606804
 21
272.3916960144
 31
0.0
  0
LINE
  5
30A
330
1F
100
AcDbEntity
  8
0
  6
SLD-Durchgehend
 62
     7
370
    15
100
AcDbLine
 10
186.5385395117
 20
272.3571450734
 30
0.0
 11
186.6954402869
 21
272.4984901685
 31
0.0
  0
LWPOLYLINE
  5
30B
330
1F
100
AcDbEntity
  8
0
  6
SLD-Durchgehend
 62
     7
370
    15
100
AcDbPolyline
 90
       18
 70
   128
 43
0.0
 10
182.0936042611
 20
255.5661912544
 10
181.9432704805
 20
256.0844451551
 10
181.7813929913
 20
256.9088380223
 10
181.683156504
 20
257.8233682592
 10
181.6499075457
 20
258.8154931906
 10
181.6821020578
 20
259.8716065103
 10
181.7792993114
 20
260.9772252469
 10
181.9401653842
 20
262.1171859314
 10
182.1624944581
 20
263.2758547379
 10
182.4432375058
 20
264.4373422341
 10
182.7785446685
 20
265.5857189714
 10
183.163817196
 20
266.7052360184
 10
183.5937711216
 20
267.7805397843
 10
184.0625102829
 20
268.7968833911
 10
184.5636062958
 20
269.7403292652
 10
185.0901866788
 20
270.5979373315
 10
185.6350301487
 20
271.3579470358
 10
186.1906644425
 20
272.0099358871
  0
SPLINE
  5
30C
330
1F
100
AcDbEntity
  8
0
  6
SLD-Durchgehend
 62
     7
370
    15
100
AcDbSpline
210
0.0
220
0.0
230
1.0
 70
     8
 71
     3
 72
     9
 73
     5
 74
     0
 42
0.000000001
 43
0.00000001
 40
0.0
 40
0.0
 40
0.0
 40
0.0
 40
0.5499850381737523
 40
1.0
 40
1.0
 40
1.0
 40
1.0
 10
186.2172875831548
 20
272.0752496233051
 30
0.0
 10
186.2168230739457
 20
272.0628557682966
 30
0.0
 10
186.215978488772
 20
272.0403208734389
 30
0.0
 10
186.1985207059778
 20
272.0193659266819
 30
0.0
 10
186.19066444252
 20
272.0099358871169
 30
0.0
  0
SPLINE
  5
30D
330
1F
100
AcDbEntity
  8
0
  6
SLD-Durchgehend
 62
     7
370
    15
100
AcDbSpline
210
0.0
220
0.0
230
1.0
 70
     8
 71
     3
 72
    11
 73
     7
 74
     0
 42
0.000000001
 43
0.00000001
 40
0.0
 40
0.0
 40
0.0
 40
0.0
 40
0.3109533824172228
 40
0.6219050304361278
 40
0.932847257339275
 40
1.0
 40
1.0
 40
1.0
 40
1.0
 10
180.0098344612583
 20
273.9885405207593
 30
0.0
 10
179.986136706461
 20
273.9965645297428
 30
0.0
 10
179.9387413290449
 20
274.0126125029546
 30
0.0
 10
179.8945472292563
 20
274.0500640635132
 30
0.0
 10
179.8740083361698
 20
274.0814640785231
 30
0.0
 10
179.8781666326388
 20
274.0984792234301
 30
0.0
 10
179.8789051799223
 20
274.1015012515957
 30
0.0
  0
LINE
  5
30E
330
1F
100
AcDbEntity
  8
0
  6
SLD-Durchgehend
 62
     7
370
    15
100
AcDbLine
 10
180.0098344613
 20
273.9885405208
 30
0.0
 11
186.2007606804
 21
272.3059794299
 31
0.0
  0
SPLINE
  5
30F
330
1F
100
AcDbEntity
  8
0
  6
SLD-Durchgehend
 62
     7
370
    15
100
AcDbSpline
210
0.0
220
0.0
230
1.0
 70
     8
 71
     3
 72
    12
 73
     8
 74
     0
 42
0.000000001
 43
0.00000001
 40
0.0
 40
0.0
 40
0.0
 40
0.0
 40
0.2146760779941822
 40
0.429353058917685
 40
0.643996843687883
 40
0.8586562428972014
 40
1.0
 40
1.0
 40
1.0
 40
1.0
 10
186.5385395116898
 20
272.3571450733924
 30
0.0
 10
186.5229830276188
 20
272.3455393672431
 30
0.0
 10
186.4918699940461
 20
272.3223279061308
 30
0.0
 10
186.4187997398683
 20
272.2993006803525
 30
0.0
 10
186.3363202994763
 20
272.2890620905217
 30
0.0
 10
186.2601604377648
 20
272.2923248168971
 30
0.0
 10
186.2176418244382
 20
272.3020988502616
 30
0.0
 10
186.2007606804151
 20
272.3059794298949
 30
0.0
  0
LWPOLYLINE
  5
310
330
1F
100
AcDbEntity
  8
0
  6
SLD-Durchgehend
 62
     7
370
    15
100
AcDbPolyline
 90
       17
 70
   128
 43
0.0
 10
145.0389519784
 20
271.2342606036
 10
145.07342685
 20
272.0724521903
 10
145.1760021706
 20
272.9573014084
 10
145.3441524413
 20
273.8670204601
 10
145.573737244
 20
274.779209283
 10
145.8591035994
 20
275.6714063947
 10
146.1932242929
 20
276.5216434084
 10
146.5678727095
 20
277.3089841932
 10
146.9738234773
 20
278.014041823
 10
147.4010808719
 20
278.6194555655
 10
147.8391243364
 20
279.1103185171
 10
148.2771678009
 20
279.4745432659
 10
148.7044251954
 20
279.7031621539
 10
149.1103759632
 20
279.7905453128
 10
149.4850243799
 20
279.7345412081
 10
149.8191450733
 20
279.5365282738
 10
149.8259791975
 20
279.530603422
  0
LINE
  5
311
330
1F
100
AcDbEntity
  8
0
  6
SLD-Durchgehend
 62
     7
370
    15
100
AcDbLine
 10
145.9233718924
 20
270.9938942218
 30
0.0
 11
145.0389519784
 21
271.2342606036
 31
0.0
  0
LWPOLYLINE
  5
312
330
1F
100
AcDbEntity
  8
0
  6
SLD-Durchgehend
 62
     7
370
    15
100
AcDbPolyline
 90
       15
 70
   128
 43
0.0
 10
145.9233718924
 20
270.9938942218
 10
145.957846764
 20
271.8320858086
 10
146.0604220846
 20
272.7169350266
 10
146.2285723553
 20
273.6266540783
 10
146.458157158
 20
274.5388429012
 10
146.7435235134
 20
275.4310400129
 10
147.0776442069
 20
276.2812770266
 10
147.4522926236
 20
277.0686178114
 10
147.8582433913
 20
277.7736754412
 10
148.2855007859
 20
278.3790891837
 10
148.7235442504
 20
278.8699521353
 10
149.1615877149
 20
279.2341768841
 10
149.5888451094
 20
279.4627957721
 10
149.9947958772
 20
279.550178931
 10
150.2971354049
 20
279.5169235103
  0
LINE
  5
313
330
1F
100
AcDbEntity
  8
0
  6
SLD-Durchgehend
 62
     7
370
    15
100
AcDbLine
 10
131.3929033382
 20
272.2214288786
 30
0.0
 11
131.4515325694
 21
272.203467385
 31
0.0
  0
LWPOLYLINE
  5
314
330
1F
100
AcDbEntity
  8
0
  6
SLD-Durchgehend
 62
     7
370
    15
100
AcDbPolyline
 90
        3
 70
   128
 43
0.0
 10
134.5987148785
 20
283.7834178329
 10
134.5472065278
 20
283.7959016014
 10
134.4860660325
 20
283.8069092173
  0
LWPOLYLINE
  5
315
330
1F
100
AcDbEntity
  8
0
  6
SLD-Durchgehend
 62
     7
370
    15
100
AcDbPolyline
 90
       15
 70
   128
 43
0.0
 10
142.3856988259
 20
271.9553579581
 10
142.4201736975
 20
272.7935495449
 10
142.522749018
 20
273.6783987629
 10
142.6908992887
 20
274.5881178146
 10
142.9204840914
 20
275.5003066375
 10
143.2058504469
 20
276.3925037492
 10
143.5399711403
 20
277.2427407629
 10
143.914619557
 20
278.0300815478
 10
144.3205703247
 20
278.7351391775
 10
144.7478277193
 20
279.3405529201
 10
145.1858711838
 20
279.8314158716
 10
145.6239146483
 20
280.1956406205
 10
146.0511720429
 20
280.4242595084
 10
146.4571228106
 20
280.5116426674
 10
146.7594623383
 20
280.4783872467
  0
LWPOLYLINE
  5
316
330
1F
100
AcDbEntity
  8
0
  6
SLD-Durchgehend
 62
     7
370
    15
100
AcDbPolyline
 90
       17
 70
   128
 43
0.0
 10
141.5012789119
 20
272.1957243399
 10
141.5357537835
 20
273.0339159267
 10
141.638329104
 20
273.9187651447
 10
141.8064793747
 20
274.8284841964
 10
142.0360641774
 20
275.7406730193
 10
142.3214305329
 20
276.632870131
 10
142.6555512263
 20
277.4831071447
 10
143.030199643
 20
278.2704479296
 10
143.4361504107
 20
278.9755055593
 10
143.8634078053
 20
279.5809193019
 10
144.3014512698
 20
280.0717822534
 10
144.7394947343
 20
280.4360070023
 10
145.1667521288
 20
280.6646258902
 10
145.5727028966
 20
280.7520090492
 10
145.9473513133
 20
280.6960049444
 10
146.2814720067
 20
280.4979920101
 10
146.2883061309
 20
280.4920671583
  0
LINE
  5
317
330
1F
100
AcDbEntity
  8
0
  6
SLD-Durchgehend
 62
     7
370
    15
100
AcDbLine
 10
141.5012789119
 20
272.1957243399
 30
0.0
 11
142.3856988259
 21
271.9553579581
 31
0.0
  0
LWPOLYLINE
  5
318
330
1F
100
AcDbEntity
  8
0
  6
SLD-Durchgehend
 62
     7
370
    15
100
AcDbPolyline
 90
       15
 70
   128
 43
0.0
 10
138.8480257593
 20
272.9168216944
 10
138.8825006309
 20
273.7550132812
 10
138.9850759514
 20
274.6398624993
 10
139.1532262221
 20
275.5495815509
 10
139.3828110249
 20
276.4617703739
 10
139.6681773803
 20
277.3539674855
 10
140.0022980737
 20
278.2042044993
 10
140.3769464904
 20
278.9915452841
 10
140.7828972581
 20
279.6966029138
 10
141.2101546527
 20
280.3020166564
 10
141.6481981172
 20
280.7928796079
 10
142.0862415817
 20
281.1571043568
 10
142.5134989763
 20
281.3857232448
 10
142.919449744
 20
281.4731064037
 10
143.2217892717
 20
281.439850983
  0
LWPOLYLINE
  5
319
330
1F
100
AcDbEntity
  8
0
  6
SLD-Durchgehend
 62
     7
370
    15
100
AcDbPolyline
 90
       17
 70
   128
 43
0.0
 10
137.96360914
 20
273.1571871808
 10
137.9980840116
 20
273.9953787676
 10
138.1006593321
 20
274.8802279856
 10
138.2688096029
 20
275.7899470373
 10
138.4983944056
 20
276.7021358602
 10
138.783760761
 20
277.5943329719
 10
139.1178814544
 20
278.4445699856
 10
139.4925298711
 20
279.2319107705
 10
139.8984806389
 20
279.9369684002
 10
140.3257380334
 20
280.5423821428
 10
140.7637814979
 20
281.0332450943
 10
141.2018249624
 20
281.3974698432
 10
141.629082357
 20
281.6260887311
 10
142.0350331247
 20
281.7134718901
 10
142.4096815414
 20
281.6574677853
 10
142.7438022348
 20
281.459454851
 10
142.750636359
 20
281.4535299992
  0
LINE
  5
31A
330
1F
100
AcDbEntity
  8
0
  6
SLD-Durchgehend
 62
     7
370
    15
100
AcDbLine
 10
137.96360914
 20
273.1571871808
 30
0.0
 11
138.8480257593
 21
272.9168216944
 31
0.0
  0
LWPOLYLINE
  5
31B
330
1F
100
AcDbEntity
  8
0
  6
SLD-Durchgehend
 62
     7
370
    15
100
AcDbPolyline
 90
       15
 70
   128
 43
0.0
 10
135.3103559874
 20
273.8782845353
 10
135.344830859
 20
274.7164761221
 10
135.4474061795
 20
275.6013253402
 10
135.6155564503
 20
276.5110443918
 10
135.845141253
 20
277.4232332148
 10
136.1305076084
 20
278.3154303264
 10
136.4646283018
 20
279.1656673402
 10
136.8392767185
 20
279.953008125
 10
137.2452274863
 20
280.6580657547
 10
137.6724848808
 20
281.2634794973
 10
138.1105283453
 20
281.7543424488
 10
138.5485718099
 20
282.1185671977
 10
138.9758292044
 20
282.3471860857
 10
139.3817799722
 20
282.4345692446
 10
139.6841194999
 20
282.4013138239
  0
LWPOLYLINE
  5
31C
330
1F
100
AcDbEntity
  8
0
  6
SLD-Durchgehend
 62
     7
370
    15
100
AcDbPolyline
 90
       17
 70
   128
 43
0.0
 10
134.4259360734
 20
274.1186509171
 10
134.460410945
 20
274.9568425039
 10
134.5629862655
 20
275.841691722
 10
134.7311365363
 20
276.7514107736
 10
134.960721339
 20
277.6635995966
 10
135.2460876944
 20
278.5557967082
 10
135.5802083878
 20
279.406033722
 10
135.9548568045
 20
280.1933745068
 10
136.3608075723
 20
280.8984321365
 10
136.7880649668
 20
281.5038458791
 10
137.2261084313
 20
281.9947088306
 10
137.6641518959
 20
282.3589335795
 10
138.0914092904
 20
282.5875524675
 10
138.4973600582
 20
282.6749356264
 10
138.8720084748
 20
282.6189315217
 10
139.2061291683
 20
282.4209185874
 10
139.2129632924
 20
282.4149937355
  0
LINE
  5
31D
330
1F
100
AcDbEntity
  8
0
  6
SLD-Durchgehend
 62
     7
370
    15
100
AcDbLine
 10
134.4259360734
 20
274.1186509171
 30
0.0
 11
135.3103559874
 21
273.8782845353
 31
0.0
  0
LWPOLYLINE
  5
31E
330
1F
100
AcDbEntity
  8
0
  6
SLD-Durchgehend
 62
     7
370
    15
100
AcDbPolyline
 90
       14
 70
   128
 43
0.0
 10
149.2390787095
 20
279.2852165438
 10
148.870206059
 20
279.2910221292
 10
148.4692425589
 20
279.1524896384
 10
148.0510910367
 20
278.8725186989
 10
147.6271576361
 20
278.4587467037
 10
147.2090061138
 20
277.9224602336
 10
146.8080426137
 20
277.278287388
 10
146.4352043804
 20
276.5438001595
 10
146.1006613218
 20
275.7390331541
 10
145.8135390048
 20
274.8859380137
 10
145.5816694961
 20
274.0077855839
 10
145.4113773
 20
273.1285288947
 10
145.3073078909
 20
272.272152234
 10
145.2722997112
 20
271.4620151443
  0
LINE
  5
31F
330
1F
100
AcDbEntity
  8
0
  6
SLD-Durchgehend
 62
     7
370
    15
100
AcDbLine
 10
145.2722997112
 20
271.4620151443
 30
0.0
 11
145.0389519784
 21
271.2342606036
 31
0.0
  0
LINE
  5
320
330
1F
100
AcDbEntity
  8
0
  6
SLD-Durchgehend
 62
     7
370
    15
100
AcDbLine
 10
145.9276974483
 20
271.2838920828
 30
0.0
 11
145.2722997112
 21
271.4620151443
 31
0.0
  0
LWPOLYLINE
  5
321
330
1F
100
AcDbEntity
  8
0
  6
SLD-Durchgehend
 62
     7
370
    15
100
AcDbPolyline
 90
       14
 70
   128
 43
0.0
 10
145.701405643
 20
280.2466802801
 10
145.3325329924
 20
280.2524858655
 10
144.9315694924
 20
280.1139533747
 10
144.5134179701
 20
279.8339824353
 10
144.0894845695
 20
279.42021044
 10
143.6713330472
 20
278.8839239699
 10
143.2703695471
 20
278.2397511244
 10
142.8975313139
 20
277.5052638958
 10
142.5629882552
 20
276.7004968905
 10
142.2758659382
 20
275.8474017501
 10
142.0439964295
 20
274.9692493202
 10
141.8737042334
 20
274.089992631
 10
141.7696348243
 20
273.2336159704
 10
141.7346266446
 20
272.4234788806
  0
LINE
  5
322
330
1F
100
AcDbEntity
  8
0
  6
SLD-Durchgehend
 62
     7
370
    15
100
AcDbLine
 10
141.7346266446
 20
272.4234788806
 30
0.0
 11
141.5012789119
 21
272.1957243399
 31
0.0
  0
LINE
  5
323
330
1F
100
AcDbEntity
  8
0
  6
SLD-Durchgehend
 62
     7
370
    15
100
AcDbLine
 10
141.7346266446
 20
272.4234788806
 30
0.0
 11
142.3900243817
 21
272.2453558192
 31
0.0
  0
LWPOLYLINE
  5
324
330
1F
100
AcDbEntity
  8
0
  6
SLD-Durchgehend
 62
     7
370
    15
100
AcDbPolyline
 90
       14
 70
   128
 43
0.0
 10
142.1637358711
 20
281.208143121
 10
141.7948632206
 20
281.2139487064
 10
141.3938997205
 20
281.0754162156
 10
140.9757481982
 20
280.7954452762
 10
140.5518147976
 20
280.3816732809
 10
140.1336632753
 20
279.8453868108
 10
139.7326997753
 20
279.2012139653
 10
139.359861542
 20
278.4667267367
 10
139.0253184833
 20
277.6619597314
 10
138.7381961663
 20
276.808864591
 10
138.5063266577
 20
275.9307121611
 10
138.3360344615
 20
275.0514554719
 10
138.2319650524
 20
274.1950788113
 10
138.1969568727
 20
273.3849417215
  0
LINE
  5
325
330
1F
100
AcDbEntity
  8
0
  6
SLD-Durchgehend
 62
     7
370
    15
100
AcDbLine
 10
138.1969568727
 20
273.3849417215
 30
0.0
 11
137.96360914
 21
273.1571871808
 31
0.0
  0
LINE
  5
326
330
1F
100
AcDbEntity
  8
0
  6
SLD-Durchgehend
 62
     7
370
    15
100
AcDbLine
 10
138.1969568727
 20
273.3849417215
 30
0.0
 11
138.8523513152
 21
273.2068195555
 31
0.0
  0
LWPOLYLINE
  5
327
330
1F
100
AcDbEntity
  8
0
  6
SLD-Durchgehend
 62
     7
370
    15
100
AcDbPolyline
 90
       14
 70
   128
 43
0.0
 10
138.6260628045
 20
282.1696068573
 10
138.257190154
 20
282.1754124427
 10
137.8562266539
 20
282.0368799519
 10
137.4380751316
 20
281.7569090125
 10
137.014141731
 20
281.3431370172
 10
136.5959902088
 20
280.8068505471
 10
136.1950267087
 20
280.1626777016
 10
135.8221884754
 20
279.4281904731
 10
135.4876454167
 20
278.6234234677
 10
135.2005230997
 20
277.7703283273
 10
134.9686535911
 20
276.8921758975
 10
134.798361395
 20
276.0129192083
 10
134.6942919859
 20
275.1565425476
 10
134.6592838061
 20
274.3464054579
  0
LINE
  5
328
330
1F
100
AcDbEntity
  8
0
  6
SLD-Durchgehend
 62
     7
370
    15
100
AcDbLine
 10
134.6592838061
 20
274.3464054579
 30
0.0
 11
134.4259360734
 21
274.1186509171
 31
0.0
  0
LINE
  5
329
330
1F
100
AcDbEntity
  8
0
  6
SLD-Durchgehend
 62
     7
370
    15
100
AcDbLine
 10
134.6592838061
 20
274.3464054579
 30
0.0
 11
135.3146815433
 21
274.1682823964
 31
0.0
  0
ARC
  5
32A
330
1F
100
AcDbEntity
  8
0
  6
SLD-Durchgehend
 62
     7
370
    15
100
AcDbCircle
 10
141.8876959194
 20
275.5206170775
 30
0.0
 40
11.76749511397877
100
AcDbArc
 50
141.1856254514
 51
180.4199965914
  0
LWPOLYLINE
  5
32B
330
1F
100
AcDbEntity
  8
0
  6
SLD-Durchgehend
 62
     7
370
    15
100
AcDbPolyline
 90
       28
 70
   128
 43
0.0
 10
196.4340094443
 20
260.8523536937
 10
196.4019308734
 20
261.3251188153
 10
196.3074245006
 20
261.709777683
 10
196.1555851134
 20
261.9855931668
 10
195.9545986331
 20
262.1376961945
 10
195.7153000813
 20
262.1578866616
 10
195.4505902069
 20
262.0450761615
 10
195.1747395522
 20
261.8053463485
 10
194.9026193107
 20
261.4516211026
 10
194.6488995172
 20
261.0029698056
 10
194.427258376
 20
260.4835794549
 10
194.2496444395
 20
259.9214503835
 10
194.1256331313
 20
259.346887309
 10
194.0619097643
 20
258.7908648756
 10
194.0619097643
 20
258.2833584964
 10
194.1256331313
 20
257.8517281321
 10
194.2496444395
 20
257.5192425851
 10
194.427258376
 20
257.3038268951
 10
194.6488995172
 20
257.2170937037
 10
194.9026193107
 20
257.2637190499
 10
195.1747395522
 20
257.4411889004
 10
195.4505902069
 20
257.739936728
 10
195.7153000813
 20
258.1438559833
 10
195.9545986331
 20
258.6311718954
 10
196.1555851134
 20
259.175612883
 10
196.3074245006
 20
259.7478282329
 10
196.4019308734
 20
260.3169693349
 10
196.4340094443
 20
260.8523536937
  0
LWPOLYLINE
  5
32C
330
1F
100
AcDbEntity
  8
0
  6
SLD-Durchgehend
 62
     7
370
    15
100
AcDbPolyline
 90
       19
 70
   128
 43
0.0
 10
195.8273053827
 20
255.6314883864
 10
195.792123943
 20
255.9636110934
 10
195.6908229171
 20
256.1869980257
 10
195.5356207711
 20
256.2747063883
 10
195.3452371651
 20
256.2161566081
 10
195.142635154
 20
256.0184108342
 10
194.952251548
 20
255.7053201425
 10
194.7970494021
 20
255.3146476752
 10
194.6957483761
 20
254.8935149292
 10
194.6605669364
 20
254.4927158948
 10
194.6957483761
 20
254.160593587
 10
194.7970494021
 20
253.9372066547
 10
194.952251548
 20
253.8494982921
 10
195.142635154
 20
253.9080480723
 10
195.3452371651
 20
254.1057938462
 10
195.5356207711
 20
254.4188845379
 10
195.6908229171
 20
254.8095570052
 10
195.792123943
 20
255.2306897512
 10
195.8273053827
 20
255.6314883864
  0
LWPOLYLINE
  5
32D
330
1F
100
AcDbEntity
  8
0
  6
SLD-Durchgehend
 62
     7
370
    15
100
AcDbPolyline
 90
       19
 70
   128
 43
0.0
 10
195.8273053827
 20
264.8888954741
 10
195.792123943
 20
265.221017782
 10
195.6908229171
 20
265.4444051134
 10
195.5356207711
 20
265.5321130769
 10
195.3452371651
 20
265.4735632966
 10
195.142635154
 20
265.2758175227
 10
194.952251548
 20
264.9627268311
 10
194.7970494021
 20
264.5720547629
 10
194.6957483761
 20
264.1509216178
 10
194.6605669364
 20
263.7501229826
 10
194.6957483761
 20
263.4180004751
 10
194.7970494021
 20
263.1946133433
 10
194.952251548
 20
263.1069051802
 10
195.142635154
 20
263.1654549605
 10
195.3452371651
 20
263.3632007344
 10
195.5356207711
 20
263.676291426
 10
195.6908229171
 20
264.0669636938
 10
195.792123943
 20
264.4880966393
 10
195.8273053827
 20
264.8888954741
  0
LWPOLYLINE
  5
32E
330
1F
100
AcDbEntity
  8
0
  6
SLD-Durchgehend
 62
     7
370
    15
100
AcDbPolyline
 90
       29
 70
   128
 43
0.0
 10
164.3126630322
 20
280.2408462716
 10
163.9685888836
 20
280.3062557375
 10
163.4654109262
 20
280.2792762
 10
162.9362977642
 20
280.1165551698
 10
162.3884049953
 20
279.8202925222
 10
161.8291418592
 20
279.3944947732
 10
161.2660714322
 20
278.8449207747
 10
160.7068082961
 20
278.179002592
 10
160.1589155272
 20
277.4057449619
 10
159.6298023652
 20
276.5356046585
 10
159.1266244078
 20
275.5803499717
 10
158.6561857886
 20
274.5528981737
 10
158.2248488259
 20
273.4671439096
 10
157.8384464415
 20
272.3377703372
 10
157.5022041423
 20
271.1800504387
 10
157.2206691733
 20
270.0096401659
 10
156.9976481463
 20
268.8423668845
 10
156.8361579248
 20
267.6940169868
 10
156.7383817254
 20
266.5801191158
 10
156.7056421698
 20
265.515737148
 10
156.7383817254
 20
264.5152648001
 10
156.8361579248
 20
263.5922320652
 10
156.9976481463
 20
262.7591209813
 10
157.2206691733
 20
262.0271984187
 10
157.5022041423
 20
261.4063616672
 10
157.8384464415
 20
260.9050073527
 10
158.2248488259
 20
260.529914926
 10
158.6561857886
 20
260.2861568596
 10
158.870992045
 20
260.2184029642
  0
LWPOLYLINE
  5
32F
330
1F
100
AcDbEntity
  8
0
  6
SLD-Durchgehend
 62
     7
370
    15
100
AcDbPolyline
 90
       10
 70
   128
 43
0.0
 10
147.8614595034
 20
267.9193964888
 10
147.894199059
 20
266.918924141
 10
147.9919752583
 20
265.995891406
 10
148.1534654798
 20
265.1627803221
 10
148.3764865069
 20
264.4308577596
 10
148.6580214759
 20
263.810021008
 10
148.9942637751
 20
263.3086666935
 10
149.3806661595
 20
262.9335742668
 10
149.8120031222
 20
262.6898162004
 10
149.982422669
 20
262.6334701145
  0
LWPOLYLINE
  5
330
330
1F
100
AcDbEntity
  8
0
  6
SLD-Durchgehend
 62
     7
370
    15
100
AcDbPolyline
 90
       20
 70
   128
 43
0.0
 10
155.4244252895
 20
282.6571343946
 10
155.1244062172
 20
282.7099150783
 10
154.6212282597
 20
282.6829355408
 10
154.0921150977
 20
282.5202145107
 10
153.5442223289
 20
282.223951863
 10
152.9849591927
 20
281.798154114
 10
152.4218887657
 20
281.2485801155
 10
151.8626256296
 20
280.5826619329
 10
151.3147328607
 20
279.8094043028
 10
150.7856196987
 20
278.9392639993
 10
150.2824417413
 20
277.9840093126
 10
149.8120031222
 20
276.9565575145
 10
149.3806661595
 20
275.8708032504
 10
148.9942637751
 20
274.741429678
 10
148.6580214759
 20
273.5837097795
 10
148.3764865069
 20
272.4132995067
 10
148.1534654798
 20
271.2460262253
 10
147.9919752583
 20
270.0976763276
 10
147.894199059
 20
268.9837784566
 10
147.8614595034
 20
267.9193964888
  0
LWPOLYLINE
  5
331
330
1F
100
AcDbEntity
  8
0
  6
SLD-Durchgehend
 62
     7
370
    15
100
AcDbPolyline
 90
       16
 70
   128
 43
0.0
 10
147.6525968444
 20
268.2673337962
 10
147.6849443512
 20
269.3000323972
 10
147.7815326686
 20
270.3813783394
 10
147.9410057075
 20
271.4961918584
 10
148.1611250516
 20
272.6288235769
 10
148.438800817
 20
273.7633735227
 10
148.7701348993
 20
274.8839158502
 10
149.1504759565
 20
275.9747193495
 10
149.5744848222
 20
277.0204723493
 10
150.0362096994
 20
278.0064950118
 10
150.5291686342
 20
278.9189455622
 10
151.046441769
 20
279.7450141091
 10
151.5807675616
 20
280.4731059671
 10
152.1246453613
 20
281.09300005
 10
152.670440294
 20
281.5959935517
 10
152.9274467021
 20
281.791361878
  0
ARC
  5
332
330
1F
100
AcDbEntity
  8
0
  6
SLD-Durchgehend
 62
     7
370
    15
100
AcDbCircle
 10
156.6244528851
 20
267.9253470076
 30
0.0
 40
8.97837155488644
100
AcDbArc
 50
177.8170717582
 51
201.4364080454
  0
LWPOLYLINE
  5
333
330
1F
100
AcDbEntity
  8
0
  6
SLD-Durchgehend
 62
     7
370
    15
100
AcDbPolyline
 90
       19
 70
   128
 43
0.0
 10
199.7537408107
 20
269.523386565
 10
199.4447654651
 20
270.0898015518
 10
199.0828759129
 20
270.5326067668
 10
198.672993193
 20
270.845780756
 10
198.2206911794
 20
271.0250648544
 10
197.7321200839
 20
271.0680218386
 10
197.2139237653
 20
270.9740665802
 10
196.6731484541
 20
270.744477145
 10
196.1171478913
 20
270.3823748513
 10
195.5534824911
 20
269.892684923
 10
194.9898170909
 20
269.2820654301
 10
194.4338165281
 20
268.5588205353
 10
193.8930412169
 20
267.7327834066
 10
193.3748448984
 20
266.8151876791
 10
192.8862738029
 20
265.8185099609
 10
192.4339717892
 20
264.7563045998
 10
192.0240890693
 20
263.6430144103
 10
191.6621995171
 20
262.493778601
 10
191.3532241716
 20
261.3242247955
  0
LINE
  5
334
330
1F
100
AcDbEntity
  8
0
  6
SLD-Durchgehend
 62
     7
370
    15
100
AcDbLine
 10
184.7200884072
 20
263.1269689654
 30
0.0
 11
191.3532241716
 21
261.3242247955
 31
0.0
  0
LWPOLYLINE
  5
335
330
1F
100
AcDbEntity
  8
0
  6
SLD-Durchgehend
 62
     7
370
    15
100
AcDbPolyline
 90
       10
 70
   128
 43
0.0
 10
184.7200884072
 20
254.2785066382
 10
184.4700681672
 20
254.9547326584
 10
184.2795667659
 20
255.7359134511
 10
184.1511329555
 20
256.611603131
 10
184.0864835795
 20
257.5700886641
 10
184.0864835795
 20
258.5985514678
 10
184.1511329555
 20
259.6832365465
 10
184.2795667659
 20
260.809636899
 10
184.4700681672
 20
261.9626881072
 10
184.7200884072
 20
263.1269689654
  0
LINE
  5
336
330
1F
100
AcDbEntity
  8
0
  6
SLD-Durchgehend
 62
     7
370
    15
100
AcDbLine
 10
191.3532241716
 20
252.4757624684
 30
0.0
 11
184.7200884072
 21
254.2785066382
 31
0.0
  0
LWPOLYLINE
  5
337
330
1F
100
AcDbEntity
  8
0
  6
SLD-Durchgehend
 62
     7
370
    15
100
AcDbPolyline
 90
       19
 70
   128
 43
0.0
 10
191.3532241716
 20
252.4757624684
 10
191.6621995171
 20
251.9093474816
 10
192.0240890693
 20
251.4665422666
 10
192.4339717892
 20
251.1533682774
 10
192.8862738029
 20
250.974084179
 10
193.3748448984
 20
250.9311271948
 10
193.8930412169
 20
251.0250824532
 10
194.4338165281
 20
251.2546718884
 10
194.9898170909
 20
251.6167741822
 10
195.5534824911
 20
252.1064641104
 10
196.1171478913
 20
252.7170836033
 10
196.6731484541
 20
253.4403284981
 10
197.2139237653
 20
254.2663656269
 10
197.7321200839
 20
255.1839613543
 10
198.2206911794
 20
256.1806390726
 10
198.672993193
 20
257.2428444336
 10
199.0828759129
 20
258.3561346231
 10
199.4447654651
 20
259.5053704324
 10
199.7537408107
 20
260.6749242379
  0
LWPOLYLINE
  5
338
330
1F
100
AcDbEntity
  8
0
  6
SLD-Durchgehend
 62
     7
370
    15
100
AcDbPolyline
 90
       29
 70
   128
 43
0.0
 10
189.2534186347
 20
273.463138871
 10
188.9533995624
 20
273.5159195547
 10
188.450221605
 20
273.4889400172
 10
187.921108443
 20
273.3262189871
 10
187.3732156741
 20
273.0299563394
 10
186.813952538
 20
272.6041585904
 10
186.250882111
 20
272.0545845919
 10
185.6916189749
 20
271.3886664093
 10
185.143726206
 20
270.6154087792
 10
184.614613044
 20
269.7452684757
 10
184.1114350866
 20
268.790013789
 10
183.6409964674
 20
267.7625619909
 10
183.2096595047
 20
266.6768077268
 10
182.8232571204
 20
265.5474341544
 10
182.4870148211
 20
264.3897142559
 10
182.2054798521
 20
263.2193039831
 10
181.9824588251
 20
262.0520307017
 10
181.8209686036
 20
260.903680804
 10
181.7231924042
 20
259.789782933
 10
181.6904528486
 20
258.7254009652
 10
181.7231924042
 20
257.7249286174
 10
181.8209686036
 20
256.8018958824
 10
181.9824588251
 20
255.9687847985
 10
182.2054798521
 20
255.236862236
 10
182.4870148211
 20
254.6160254844
 10
182.8232571204
 20
254.1146711699
 10
183.2096595047
 20
253.7395787433
 10
183.6409964674
 20
253.4958206768
 10
183.8114160142
 20
253.4394745909
  0
SPLINE
  5
339
330
1F
100
AcDbEntity
  8
0
  6
SLD-Durchgehend
 62
     7
370
    15
100
AcDbSpline
210
0.0
220
0.0
230
1.0
 70
    11
 71
     3
 72
    22
 73
    18
 74
     0
 42
0.000000001
 43
0.00000001
 40
0.0
 40
0.0
 40
0.0
 40
0.0
 40
0.125
 40
0.125
 40
0.25
 40
0.25
 40
0.375
 40
0.375
 40
0.5
 40
0.5
 40
0.625
 40
0.625
 40
0.75
 40
0.75
 40
0.875
 40
0.875
 40
1.0
 40
1.0
 40
1.0
 40
1.0
 10
191.0147180354951
 20
270.9780552791183
 30
0.0
 10
191.0731492645085
 20
270.9621749231022
 30
0.0
 10
191.1429356734779
 20
270.9596122763867
 30
0.0
 10
191.2675785785483
 20
270.9808135927065
 30
0.0
 10
191.3219665826168
 20
271.0046628139866
 30
0.0
 10
191.382902068287
 20
271.0640625861186
 30
0.0
 10
191.3897376402284
 20
271.0993951934562
 30
0.0
 10
191.3508119626422
 20
271.1629942858983
 30
0.0
 10
191.3058511719929
 20
271.1900919416104
 30
0.0
 10
191.1904369464504
 20
271.2214850293741
 30
0.0
 10
191.1200859891076
 20
271.2254862573852
 30
0.0
 10
190.9954739968088
 20
271.2070587958435
 30
0.0
 10
190.9412413682644
 20
271.1847427119638
 30
0.0
 10
190.8795709496247
 20
271.1247013321936
 30
0.0
 10
190.8732553615809
 20
271.0880954358229
 30
0.0
 10
190.9117199086535
 20
271.0224879684963
 30
0.0
 10
190.9562868064818
 20
270.9939356351343
 30
0.0
 10
191.0147180354951
 20
270.9780552791183
 30
0.0
  0
LINE
  5
33A
330
1F
100
AcDbEntity
  8
0
  6
SLD-Durchgehend
 62
     7
370
    15
100
AcDbLine
 10
199.7537408107
 20
260.6749242379
 30
0.0
 11
199.7537408107
 21
269.523386565
 31
0.0
  0
LINE
  5
33B
330
1F
100
AcDbEntity
  8
0
  6
SLD-Durchgehend
 62
     7
370
    15
100
AcDbLine
 10
191.3532241716
 20
261.3242247955
 30
0.0
 11
191.3532241716
 21
252.4757624684
 31
0.0
  0
LWPOLYLINE
  5
33C
330
1F
100
AcDbEntity
  8
0
  6
SLD-Durchgehend
 62
     7
370
    15
100
AcDbPolyline
 90
       46
 70
   128
 43
0.0
 10
195.5534824911
 20
265.7868538217
 10
195.0851825919
 20
265.2696337001
 10
194.6259976109
 20
264.6421905971
 10
194.1848650775
 20
263.9167371812
 10
193.7703711113
 20
263.107393141
 10
193.3905833558
 20
262.2299113588
 10
193.0528939096
 20
261.3013715329
 10
192.7638756757
 20
260.3398465822
 10
192.5291540334
 20
259.3640512758
 10
192.3532973081
 20
258.3929782755
 10
192.2397287555
 20
257.4455287589
 10
192.19065854
 20
256.540143448
 10
192.2070417918
 20
255.6944445966
 10
192.2885599168
 20
254.9248931904
 10
192.4336258126
 20
254.246466959
 10
192.6394162495
 20
253.6723717387
 10
192.9019257662
 20
253.2137807433
 10
193.2160446883
 20
252.8796199327
 10
193.575659314
 20
252.6763939759
 10
193.9737699198
 20
252.6080579468
 10
194.4026278907
 20
252.6759420133
 10
194.8538858896
 20
252.8787251754
 10
195.3187607674
 20
253.2124601563
 10
195.7882042149
 20
253.6706513525
 10
196.2530790926
 20
254.2443806358
 10
196.7043370915
 20
254.9224807553
 10
197.1331950624
 20
255.6917537426
 10
197.5313056682
 20
256.5372260835
 10
197.8909202939
 20
257.4424418388
 10
198.205039216
 20
258.3897820448
 10
198.4675487327
 20
259.3608077119
 10
198.6733391696
 20
260.3366184827
 10
198.8184050655
 20
261.2982222371
 10
198.8999231905
 20
262.2269020215
 10
198.9163064422
 20
263.1045819849
 10
198.8672362268
 20
263.9141792265
 10
198.7536676741
 20
264.6399359651
 10
198.5778109488
 20
265.2677258554
 10
198.3430893065
 20
265.7853301246
 10
198.0540710726
 20
266.1826737622
 10
197.7163816264
 20
266.4520230844
 10
197.336593871
 20
266.5881358821
 10
196.9220999047
 20
266.5883622864
 10
196.4809673713
 20
266.4526979499
 10
196.0217823904
 20
266.1837838162
 10
195.5534824911
 20
265.7868538217
  0
LINE
  5
33D
330
1F
100
AcDbEntity
  8
0
  6
SLD-Durchgehend
 62
     7
370
    15
100
AcDbLine
 10
188.6622862833
 20
259.3715242864
 30
0.0
 11
187.3526672279
 21
259.3296028817
 31
0.0
  0
LINE
  5
33E
330
1F
100
AcDbEntity
  8
0
  6
SLD-Durchgehend
 62
     7
370
    15
100
AcDbLine
 10
188.6622862833
 20
259.5926845139
 30
0.0
 11
188.6622862833
 21
259.3715242864
 31
0.0
  0
LINE
  5
33F
330
1F
100
AcDbEntity
  8
0
  6
SLD-Durchgehend
 62
     7
370
    15
100
AcDbLine
 10
187.3526672279
 20
260.3488627918
 30
0.0
 11
188.6622862833
 21
259.5926845139
 31
0.0
  0
LINE
  5
340
330
1F
100
AcDbEntity
  8
0
  6
SLD-Durchgehend
 62
     7
370
    15
100
AcDbLine
 10
188.6622862833
 20
259.9929363943
 30
0.0
 11
187.3526672279
 21
260.3488627918
 31
0.0
  0
LINE
  5
341
330
1F
100
AcDbEntity
  8
0
  6
SLD-Durchgehend
 62
     7
370
    15
100
AcDbLine
 10
188.6622862833
 20
260.2044807081
 30
0.0
 11
188.6622862833
 21
259.9929363943
 31
0.0
  0
LINE
  5
342
330
1F
100
AcDbEntity
  8
0
  6
SLD-Durchgehend
 62
     7
370
    15
100
AcDbLine
 10
187.1145545226
 20
260.6251210368
 30
0.0
 11
188.6622862833
 21
260.2044807081
 31
0.0
  0
LINE
  5
343
330
1F
100
AcDbEntity
  8
0
  6
SLD-Durchgehend
 62
     7
370
    15
100
AcDbLine
 10
187.1145545226
 20
260.3096072256
 30
0.0
 11
187.1145545226
 21
260.6251210368
 31
0.0
  0
LINE
  5
344
330
1F
100
AcDbEntity
  8
0
  6
SLD-Durchgehend
 62
     7
370
    15
100
AcDbLine
 10
188.1820306135
 20
259.6874494957
 30
0.0
 11
187.1145545226
 21
260.3096072256
 31
0.0
  0
SPLINE
  5
345
330
1F
100
AcDbEntity
  8
0
  6
SLD-Durchgehend
 62
     7
370
    15
100
AcDbSpline
210
0.0
220
0.0
230
1.0
 70
     8
 71
     3
 72
    15
 73
    11
 74
     0
 42
0.000000001
 43
0.00000001
 40
0.0
 40
0.0
 40
0.0
 40
0.0
 40
0.0892047702332458
 40
0.1898334556643495
 40
0.2992325919749821
 40
0.4192609378429075
 40
0.5492073901909386
 40
0.6890743636843496
 40
0.8395791979483186
 40
1.0
 40
1.0
 40
1.0
 40
1.0
 10
188.4278941376367
 20
259.5470089150315
 30
0.0
 10
188.4205535776004
 20
259.5510980103378
 30
0.0
 10
188.4049323964175
 20
259.5597998666457
 30
0.0
 10
188.3803707667794
 20
259.5736996534657
 30
0.0
 10
188.3531905597742
 20
259.5887736847748
 30
0.0
 10
188.3238589588351
 20
259.6059444082014
 30
0.0
 10
188.2919158432115
 20
259.6242147551278
 30
0.0
 10
188.2573877406288
 20
259.6436635442532
 30
0.0
 10
188.2206193727827
 20
259.6652659388497
 30
0.0
 10
188.195164066591
 20
259.6798992652099
 30
0.0
 10
188.1820305061547
 20
259.6874492697037
 30
0.0
  0
SPLINE
  5
346
330
1F
100
AcDbEntity
  8
0
  6
SLD-Durchgehend
 62
     7
370
    15
100
AcDbSpline
210
0.0
220
0.0
230
1.0
 70
     8
 71
     3
 72
    15
 73
    11
 74
     0
 42
0.000000001
 43
0.00000001
 40
0.0
 40
0.0
 40
0.0
 40
0.0
 40
0.1625255217041875
 40
0.3143148980392363
 40
0.4549784905465745
 40
0.5845192373661994
 40
0.7045671033090736
 40
0.8134949897289294
 40
0.9116812596826064
 40
1.0
 40
1.0
 40
1.0
 40
1.0
 10
188.2006330507814
 20
259.5411635077307
 30
0.0
 10
188.2129364281566
 20
259.5415102114919
 30
0.0
 10
188.2367304437961
 20
259.5421807163838
 30
0.0
 10
188.2710911918118
 20
259.5434258347684
 30
0.0
 10
188.3030218051067
 20
259.5443771103897
 30
0.0
 10
188.3326239205073
 20
259.5450046195937
 30
0.0
 10
188.359750564864
 20
259.5458167461422
 30
0.0
 10
188.3846243323013
 20
259.5461431347394
 30
0.0
 10
188.406968819968
 20
259.5468453499269
 30
0.0
 10
188.4211694724893
 20
259.5469563509282
 30
0.0
 10
188.4278941376367
 20
259.5470089150315
 30
0.0
  0
LINE
  5
347
330
1F
100
AcDbEntity
  8
0
  6
SLD-Durchgehend
 62
     7
370
    15
100
AcDbLine
 10
187.1145545226
 20
259.500990549
 30
0.0
 11
188.2006331879
 21
259.5411635993
 31
0.0
  0
LINE
  5
348
330
1F
100
AcDbEntity
  8
0
  6
SLD-Durchgehend
 62
     7
370
    15
100
AcDbLine
 10
187.1145545226
 20
259.1827722995
 30
0.0
 11
187.1145545226
 21
259.500990549
 31
0.0
  0
LINE
  5
349
330
1F
100
AcDbEntity
  8
0
  6
SLD-Durchgehend
 62
     7
370
    15
100
AcDbLine
 10
188.6622862833
 20
258.7621319708
 30
0.0
 11
187.1145545226
 21
259.1827722995
 31
0.0
  0
LINE
  5
34A
330
1F
100
AcDbEntity
  8
0
  6
SLD-Durchgehend
 62
     7
370
    15
100
AcDbLine
 10
188.6622862833
 20
258.9736764842
 30
0.0
 11
188.6622862833
 21
258.7621319708
 31
0.0
  0
LINE
  5
34B
330
1F
100
AcDbEntity
  8
0
  6
SLD-Durchgehend
 62
     7
370
    15
100
AcDbLine
 10
187.3526672279
 20
259.3296028817
 30
0.0
 11
188.6622862833
 21
258.9736764842
 31
0.0
  0
LINE
  5
34C
330
1F
100
AcDbEntity
  8
0
  6
SLD-Durchgehend
 62
     7
370
    15
100
AcDbLine
 10
188.6622862833
 20
257.6599370752
 30
0.0
 11
187.3526672279
 21
257.6180155957
 31
0.0
  0
LINE
  5
34D
330
1F
100
AcDbEntity
  8
0
  6
SLD-Durchgehend
 62
     7
370
    15
100
AcDbLine
 10
188.6622862833
 20
257.8810972279
 30
0.0
 11
188.6622862833
 21
257.6599370752
 31
0.0
  0
LINE
  5
34E
330
1F
100
AcDbEntity
  8
0
  6
SLD-Durchgehend
 62
     7
370
    15
100
AcDbLine
 10
187.3526672279
 20
258.637275406
 30
0.0
 11
188.6622862833
 21
257.8810972279
 31
0.0
  0
LINE
  5
34F
330
1F
100
AcDbEntity
  8
0
  6
SLD-Durchgehend
 62
     7
370
    15
100
AcDbLine
 10
188.6622862833
 20
258.2813490084
 30
0.0
 11
187.3526672279
 21
258.637275406
 31
0.0
  0
LINE
  5
350
330
1F
100
AcDbEntity
  8
0
  6
SLD-Durchgehend
 62
     7
370
    15
100
AcDbLine
 10
188.6622862833
 20
258.492893472
 30
0.0
 11
188.6622862833
 21
258.2813490084
 31
0.0
  0
LINE
  5
351
330
1F
100
AcDbEntity
  8
0
  6
SLD-Durchgehend
 62
     7
370
    15
100
AcDbLine
 10
187.1145545226
 20
258.9135338006
 30
0.0
 11
188.6622862833
 21
258.492893472
 31
0.0
  0
LINE
  5
352
330
1F
100
AcDbEntity
  8
0
  6
SLD-Durchgehend
 62
     7
370
    15
100
AcDbLine
 10
187.1145545226
 20
258.5980200393
 30
0.0
 11
187.1145545226
 21
258.9135338006
 31
0.0
  0
LINE
  5
353
330
1F
100
AcDbEntity
  8
0
  6
SLD-Durchgehend
 62
     7
370
    15
100
AcDbLine
 10
188.1820306135
 20
257.9758621847
 30
0.0
 11
187.1145545226
 21
258.5980200393
 31
0.0
  0
SPLINE
  5
354
330
1F
100
AcDbEntity
  8
0
  6
SLD-Durchgehend
 62
     7
370
    15
100
AcDbSpline
210
0.0
220
0.0
230
1.0
 70
     8
 71
     3
 72
    15
 73
    11
 74
     0
 42
0.000000001
 43
0.00000001
 40
0.0
 40
0.0
 40
0.0
 40
0.0
 40
0.0892047702332454
 40
0.189833455664349
 40
0.2992325919749815
 40
0.4192609378429064
 40
0.5492073901909387
 40
0.6890743636843488
 40
0.8395791979483186
 40
1.0
 40
1.0
 40
1.0
 40
1.0
 10
188.4278941376367
 20
257.8354216447192
 30
0.0
 10
188.4205535776004
 20
257.8395107400256
 30
0.0
 10
188.4049323964175
 20
257.8482125963334
 30
0.0
 10
188.3803707667794
 20
257.8621123831535
 30
0.0
 10
188.3531905597742
 20
257.8771864144625
 30
0.0
 10
188.3238589588351
 20
257.8943571378891
 30
0.0
 10
188.2919158432115
 20
257.9126274848155
 30
0.0
 10
188.2573877406288
 20
257.9320762739409
 30
0.0
 10
188.2206193727827
 20
257.9536786685374
 30
0.0
 10
188.195164066591
 20
257.9683119948977
 30
0.0
 10
188.1820305061547
 20
257.9758619993914
 30
0.0
  0
SPLINE
  5
355
330
1F
100
AcDbEntity
  8
0
  6
SLD-Durchgehend
 62
     7
370
    15
100
AcDbSpline
210
0.0
220
0.0
230
1.0
 70
     8
 71
     3
 72
    15
 73
    11
 74
     0
 42
0.000000001
 43
0.00000001
 40
0.0
 40
0.0
 40
0.0
 40
0.0
 40
0.1625255217041875
 40
0.3143148980392358
 40
0.4549784905465741
 40
0.584519237366199
 40
0.7045671033090732
 40
0.8134949897289292
 40
0.9116812596826059
 40
1.0
 40
1.0
 40
1.0
 40
1.0
 10
188.2006330507814
 20
257.8295762374185
 30
0.0
 10
188.2129364281566
 20
257.8299229411796
 30
0.0
 10
188.2367304437961
 20
257.8305934460716
 30
0.0
 10
188.2710911918118
 20
257.8318385644562
 30
0.0
 10
188.3030218051067
 20
257.8327898400775
 30
0.0
 10
188.3326239205073
 20
257.8334173492814
 30
0.0
 10
188.359750564864
 20
257.8342294758299
 30
0.0
 10
188.3846243323013
 20
257.8345558644272
 30
0.0
 10
188.406968819968
 20
257.8352580796146
 30
0.0
 10
188.4211694724893
 20
257.835369080616
 30
0.0
 10
188.4278941376367
 20
257.8354216447192
 30
0.0
  0
LINE
  5
356
330
1F
100
AcDbEntity
  8
0
  6
SLD-Durchgehend
 62
     7
370
    15
100
AcDbLine
 10
187.1145545226
 20
257.789403238
 30
0.0
 11
188.2006331879
 21
257.8295764255
 31
0.0
  0
LINE
  5
357
330
1F
100
AcDbEntity
  8
0
  6
SLD-Durchgehend
 62
     7
370
    15
100
AcDbLine
 10
187.1145545226
 20
257.4711850134
 30
0.0
 11
187.1145545226
 21
257.789403238
 31
0.0
  0
LINE
  5
358
330
1F
100
AcDbEntity
  8
0
  6
SLD-Durchgehend
 62
     7
370
    15
100
AcDbLine
 10
188.6622862833
 20
257.0505446847
 30
0.0
 11
187.1145545226
 21
257.4711850134
 31
0.0
  0
LINE
  5
359
330
1F
100
AcDbEntity
  8
0
  6
SLD-Durchgehend
 62
     7
370
    15
100
AcDbLine
 10
188.6622862833
 20
257.2620891981
 30
0.0
 11
188.6622862833
 21
257.0505446847
 31
0.0
  0
LINE
  5
35A
330
1F
100
AcDbEntity
  8
0
  6
SLD-Durchgehend
 62
     7
370
    15
100
AcDbLine
 10
187.3526672279
 20
257.6180155957
 30
0.0
 11
188.6622862833
 21
257.2620891981
 31
0.0
  0
LINE
  5
35B
330
1F
100
AcDbEntity
  8
0
  6
SLD-Durchgehend
 62
     7
370
    15
100
AcDbLine
 10
187.1145545226
 20
257.1634839075
 30
0.0
 11
188.1649784081
 21
256.8780012033
 31
0.0
  0
LINE
  5
35C
330
1F
100
AcDbEntity
  8
0
  6
SLD-Durchgehend
 62
     7
370
    15
100
AcDbLine
 10
187.1145545226
 20
256.9519394939
 30
0.0
 11
187.1145545226
 21
257.1634839075
 31
0.0
  0
LINE
  5
35D
330
1F
100
AcDbEntity
  8
0
  6
SLD-Durchgehend
 62
     7
370
    15
100
AcDbLine
 10
188.1789302874
 20
256.6626649679
 30
0.0
 11
187.1145545226
 21
256.9519394939
 31
0.0
  0
SPLINE
  5
35E
330
1F
100
AcDbEntity
  8
0
  6
SLD-Durchgehend
 62
     7
370
    15
100
AcDbSpline
210
0.0
220
0.0
230
1.0
 70
     8
 71
     3
 72
    23
 73
    19
 74
     0
 42
0.000000001
 43
0.00000001
 40
0.0
 40
0.0
 40
0.0
 40
0.0
 40
0.0735942393366707
 40
0.1438030845726417
 40
0.211314618374481
 40
0.27917152037263
 40
0.3469047428464688
 40
0.4137163819362342
 40
0.481711687395285
 40
0.5518807121997039
 40
0.5909583408062423
 40
0.6345771578211145
 40
0.6828680236044956
 40
0.7359272416396805
 40
0.7945945955668139
 40
0.8581034315720178
 40
0.9265716693605607
 40
1.0
 40
1.0
 40
1.0
 40
1.0
 10
188.503544485785
 20
256.3818278472703
 30
0.0
 10
188.5031868003119
 20
256.3922840571215
 30
0.0
 10
188.5024878831848
 20
256.412715482775
 30
0.0
 10
188.4953046554238
 20
256.443701743073
 30
0.0
 10
188.4845273007523
 20
256.4736834932258
 30
0.0
 10
188.468790763905
 20
256.5022665839448
 30
0.0
 10
188.4496424722106
 20
256.5291413670058
 30
0.0
 10
188.4270462910977
 20
256.553716143936
 30
0.0
 10
188.4009323131015
 20
256.5748548657038
 30
0.0
 10
188.3768219826658
 20
256.590251166018
 30
0.0
 10
188.3553626262783
 20
256.6015081111329
 30
0.0
 10
188.3367204310974
 20
256.6101248742162
 30
0.0
 10
188.3159230517691
 20
256.6187701708151
 30
0.0
 10
188.2928401411723
 20
256.6273042909466
 30
0.0
 10
188.2675386709478
 20
256.6364758152725
 30
0.0
 10
188.2399080415998
 20
256.6449021176753
 30
0.0
 10
188.2101494897799
 20
256.6540585662332
 30
0.0
 10
188.1895762683625
 20
256.6597299413542
 30
0.0
 10
188.1789300820503
 20
256.6626647523379
 30
0.0
  0
SPLINE
  5
35F
330
1F
100
AcDbEntity
  8
0
  6
SLD-Durchgehend
 62
     7
370
    15
100
AcDbSpline
210
0.0
220
0.0
230
1.0
 70
     8
 71
     3
 72
    23
 73
    19
 74
     0
 42
0.000000001
 43
0.00000001
 40
0.0
 40
0.0
 40
0.0
 40
0.0
 40
0.1020387126976406
 40
0.1951973892471023
 40
0.2812314038797933
 40
0.3595173299923867
 40
0.4303435542093523
 40
0.4943707912330118
 40
0.5526181939787068
 40
0.604901827841916
 40
0.6542752933478332
 40
0.7020598373927016
 40
0.7494496649684046
 40
0.7970865736118661
 40
0.8446124547373408
 40
0.8944120716984693
 40
0.9455549583006414
 40
1.0
 40
1.0
 40
1.0
 40
1.0
 10
188.2059037717589
 20
256.2707075285722
 30
0.0
 10
188.2196574966726
 20
256.2675411176699
 30
0.0
 10
188.2459680127955
 20
256.2614838564101
 30
0.0
 10
188.2837403659396
 20
256.2548430910918
 30
0.0
 10
188.3180952502141
 20
256.2505665065418
 30
0.0
 10
188.3491581296242
 20
256.2483907107352
 30
0.0
 10
188.3769505647712
 20
256.2481375757791
 30
0.0
 10
188.4012483303997
 20
256.2506933383531
 30
0.0
 10
188.4225619309693
 20
256.2547653353714
 30
0.0
 10
188.44022835673
 20
256.2620926143539
 30
0.0
 10
188.4553270052485
 20
256.2709931073027
 30
0.0
 10
188.4681471833408
 20
256.2818143738887
 30
0.0
 10
188.4790717113618
 20
256.2942678263436
 30
0.0
 10
188.4880962176677
 20
256.3083239138167
 30
0.0
 10
188.4950184178719
 20
256.3242233546101
 30
0.0
 10
188.4998268201725
 20
256.3417844427963
 30
0.0
 10
188.5031555597468
 20
256.3609903660239
 30
0.0
 10
188.5034121687108
 20
256.374738698482
 30
0.0
 10
188.503544485785
 20
256.3818278472703
 30
0.0
  0
LINE
  5
360
330
1F
100
AcDbEntity
  8
0
  6
SLD-Durchgehend
 62
     7
370
    15
100
AcDbLine
 10
188.2303972246
 20
256.0525063741
 30
0.0
 11
188.2059039071
 21
256.2707077462
 31
0.0
  0
SPLINE
  5
361
330
1F
100
AcDbEntity
  8
0
  6
SLD-Durchgehend
 62
     7
370
    15
100
AcDbSpline
210
0.0
220
0.0
230
1.0
 70
     8
 71
     3
 72
    23
 73
    19
 74
     0
 42
0.000000001
 43
0.00000001
 40
0.0
 40
0.0
 40
0.0
 40
0.0
 40
0.0693843382785907
 40
0.135152861728727
 40
0.1977357094633064
 40
0.2570484274319891
 40
0.3145896101412934
 40
0.370543527787568
 40
0.4258333542160394
 40
0.4811588952832257
 40
0.537040396648158
 40
0.5941387561101027
 40
0.6529749918449917
 40
0.7146821562126676
 40
0.779789612023037
 40
0.8486208732548072
 40
0.922217432424638
 40
1.0
 40
1.0
 40
1.0
 40
1.0
 10
188.6821289142006
 20
256.324578235421
 30
0.0
 10
188.6817763253869
 20
256.3090317440591
 30
0.0
 10
188.6810895221635
 20
256.278748933132
 30
0.0
 10
188.6756299156888
 20
256.2359352866388
 30
0.0
 10
188.6674189755228
 20
256.1965412808103
 30
0.0
 10
188.654211610431
 20
256.16169466006
 30
0.0
 10
188.6387587547289
 20
256.1298679858398
 30
0.0
 10
188.6188984300979
 20
256.1023461876873
 30
0.0
 10
188.5959838103828
 20
256.0781980177098
 30
0.0
 10
188.5690324968862
 20
256.0584595409329
 30
0.0
 10
188.5389200013798
 20
256.0422397933993
 30
0.0
 10
188.5047079924776
 20
256.031358729276
 30
0.0
 10
188.467634286591
 20
256.0236014405659
 30
0.0
 10
188.4266662623789
 20
256.0212725122419
 30
0.0
 10
188.3825637161014
 20
256.0222152690203
 30
0.0
 10
188.3347639506092
 20
256.0283754813601
 30
0.0
 10
188.2837141154706
 20
256.0377630564734
 30
0.0
 10
188.2484940936064
 20
256.0475020937585
 30
0.0
 10
188.230397122184
 20
256.0525062666721
 30
0.0
  0
SPLINE
  5
362
330
1F
100
AcDbEntity
  8
0
  6
SLD-Durchgehend
 62
     7
370
    15
100
AcDbSpline
210
0.0
220
0.0
230
1.0
 70
     8
 71
     3
 72
    23
 73
    19
 74
     0
 42
0.000000001
 43
0.00000001
 40
0.0
 40
0.0
 40
0.0
 40
0.0
 40
0.0612110271793111
 40
0.1184594960739765
 40
0.1726331058914157
 40
0.2237768589706943
 40
0.2712457424507517
 40
0.3159764808950312
 40
0.3576308604522536
 40
0.3965150371727525
 40
0.4698251775330554
 40
0.5405346352374227
 40
0.6117536143254617
 40
0.6843458494326412
 40
0.7589299383044529
 40
0.8352216862935903
 40
0.9153235255430702
 40
1.0
 40
1.0
 40
1.0
 40
1.0
 10
188.1649781735803
 20
256.8780010761903
 30
0.0
 10
188.1806893724053
 20
256.8736446913124
 30
0.0
 10
188.2110946895727
 20
256.8652139365755
 30
0.0
 10
188.2553658674642
 20
256.8510731126187
 30
0.0
 10
188.2969239968152
 20
256.8361107236667
 30
0.0
 10
188.3358602531163
 20
256.8209213056621
 30
0.0
 10
188.3720923462016
 20
256.804754191474
 30
0.0
 10
188.4054994084991
 20
256.7878564821868
 30
0.0
 10
188.4363526987077
 20
256.7706110287675
 30
0.0
 10
188.4731764923388
 20
256.7466965890968
 30
0.0
 10
188.5149537114288
 20
256.7141690590645
 30
0.0
 10
188.5592616233025
 20
256.6697280830933
 30
0.0
 10
188.5970594995237
 20
256.6202962559298
 30
0.0
 10
188.6281685491025
 20
256.5663661140458
 30
0.0
 10
188.6521767536596
 20
256.5091409374866
 30
0.0
 10
188.6696078408649
 20
256.4493524548982
 30
0.0
 10
188.6803948408578
 20
256.3871461522163
 30
0.0
 10
188.6815402896318
 20
256.3458166756504
 30
0.0
 10
188.6821289142006
 20
256.324578235421
 30
0.0
  0
LINE
  5
363
330
1F
100
AcDbEntity
  8
0
  6
SLD-Durchgehend
 62
     7
370
    15
100
AcDbLine
 10
187.1145545226
 20
256.1249927688
 30
0.0
 11
188.1649784081
 21
255.8395100646
 31
0.0
  0
LINE
  5
364
330
1F
100
AcDbEntity
  8
0
  6
SLD-Durchgehend
 62
     7
370
    15
100
AcDbLine
 10
187.1145545226
 20
255.9134482554
 30
0.0
 11
187.1145545226
 21
256.1249927688
 31
0.0
  0
LINE
  5
365
330
1F
100
AcDbEntity
  8
0
  6
SLD-Durchgehend
 62
     7
370
    15
100
AcDbLine
 10
188.1789302874
 20
255.6241737293
 30
0.0
 11
187.1145545226
 21
255.9134482554
 31
0.0
  0
SPLINE
  5
366
330
1F
100
AcDbEntity
  8
0
  6
SLD-Durchgehend
 62
     7
370
    15
100
AcDbSpline
210
0.0
220
0.0
230
1.0
 70
     8
 71
     3
 72
    23
 73
    19
 74
     0
 42
0.000000001
 43
0.00000001
 40
0.0
 40
0.0
 40
0.0
 40
0.0
 40
0.073594239336671
 40
0.1438030845726416
 40
0.2113146183744808
 40
0.2791715203726298
 40
0.3469047428464692
 40
0.4137163819362344
 40
0.4817116873952846
 40
0.5518807121997044
 40
0.5909583408062421
 40
0.634577157821114
 40
0.682868023604495
 40
0.73592724163968
 40
0.7945945955668142
 40
0.8581034315720172
 40
0.9265716693605599
 40
1.0
 40
1.0
 40
1.0
 40
1.0
 10
188.503544485785
 20
255.3433366944966
 30
0.0
 10
188.5031868003119
 20
255.3537929043477
 30
0.0
 10
188.5024878831848
 20
255.3742243300013
 30
0.0
 10
188.4953046554238
 20
255.4052105902993
 30
0.0
 10
188.4845273007523
 20
255.4351923404521
 30
0.0
 10
188.468790763905
 20
255.463775431171
 30
0.0
 10
188.4496424722106
 20
255.4906502142321
 30
0.0
 10
188.4270462910977
 20
255.5152249911623
 30
0.0
 10
188.4009323131015
 20
255.5363637129301
 30
0.0
 10
188.3768219826658
 20
255.5517600132443
 30
0.0
 10
188.3553626262783
 20
255.5630169583592
 30
0.0
 10
188.3367204310974
 20
255.5716337214425
 30
0.0
 10
188.3159230517691
 20
255.5802790180413
 30
0.0
 10
188.2928401411723
 20
255.5888131381728
 30
0.0
 10
188.2675386709478
 20
255.5979846624987
 30
0.0
 10
188.2399080415998
 20
255.6064109649016
 30
0.0
 10
188.2101494897799
 20
255.6155674134595
 30
0.0
 10
188.1895762683625
 20
255.6212387885805
 30
0.0
 10
188.1789300820503
 20
255.6241735995641
 30
0.0
  0
SPLINE
  5
367
330
1F
100
AcDbEntity
  8
0
  6
SLD-Durchgehend
 62
     7
370
    15
100
AcDbSpline
210
0.0
220
0.0
230
1.0
 70
     8
 71
     3
 72
    23
 73
    19
 74
     0
 42
0.000000001
 43
0.00000001
 40
0.0
 40
0.0
 40
0.0
 40
0.0
 40
0.1020387126976414
 40
0.1951973892471031
 40
0.281231403879794
 40
0.3595173299923877
 40
0.4303435542093532
 40
0.4943707912330116
 40
0.5526181939787073
 40
0.6049018278419174
 40
0.6542752933478342
 40
0.7020598373927018
 40
0.7494496649684051
 40
0.7970865736118666
 40
0.8446124547373408
 40
0.8944120716984701
 40
0.9455549583006423
 40
1.0
 40
1.0
 40
1.0
 40
1.0
 10
188.2059037717589
 20
255.2322163757985
 30
0.0
 10
188.2196574966726
 20
255.2290499648961
 30
0.0
 10
188.2459680127955
 20
255.2229927036364
 30
0.0
 10
188.2837403659396
 20
255.2163519383181
 30
0.0
 10
188.3180952502141
 20
255.2120753537681
 30
0.0
 10
188.3491581296242
 20
255.2098995579615
 30
0.0
 10
188.3769505647712
 20
255.2096464230053
 30
0.0
 10
188.4012483303997
 20
255.2122021855794
 30
0.0
 10
188.4225619309693
 20
255.2162741825977
 30
0.0
 10
188.44022835673
 20
255.2236014615801
 30
0.0
 10
188.4553270052485
 20
255.232501954529
 30
0.0
 10
188.4681471833408
 20
255.243323221115
 30
0.0
 10
188.4790717113618
 20
255.2557766735699
 30
0.0
 10
188.4880962176677
 20
255.2698327610429
 30
0.0
 10
188.4950184178719
 20
255.2857322018364
 30
0.0
 10
188.4998268201725
 20
255.3032932900225
 30
0.0
 10
188.5031555597468
 20
255.3224992132502
 30
0.0
 10
188.5034121687108
 20
255.3362475457083
 30
0.0
 10
188.503544485785
 20
255.3433366944966
 30
0.0
  0
LINE
  5
368
330
1F
100
AcDbEntity
  8
0
  6
SLD-Durchgehend
 62
     7
370
    15
100
AcDbLine
 10
188.2303972246
 20
255.0140152353
 30
0.0
 11
188.2059039071
 21
255.2322165076
 31
0.0
  0
SPLINE
  5
369
330
1F
100
AcDbEntity
  8
0
  6
SLD-Durchgehend
 62
     7
370
    15
100
AcDbSpline
210
0.0
220
0.0
230
1.0
 70
     8
 71
     3
 72
    23
 73
    19
 74
     0
 42
0.000000001
 43
0.00000001
 40
0.0
 40
0.0
 40
0.0
 40
0.0
 40
0.0693843382785906
 40
0.1351528617287271
 40
0.1977357094633059
 40
0.2570484274319889
 40
0.3145896101412937
 40
0.3705435277875682
 40
0.4258333542160396
 40
0.4811588952832259
 40
0.5370403966481583
 40
0.5941387561101025
 40
0.6529749918449914
 40
0.7146821562126673
 40
0.7797896120230365
 40
0.8486208732548066
 40
0.9222174324246376
 40
1.0
 40
1.0
 40
1.0
 40
1.0
 10
188.6821289142006
 20
255.2860870826472
 30
0.0
 10
188.6817763253869
 20
255.2705405912854
 30
0.0
 10
188.6810895221635
 20
255.2402577803582
 30
0.0
 10
188.6756299156888
 20
255.1974441338651
 30
0.0
 10
188.6674189755228
 20
255.1580501280365
 30
0.0
 10
188.654211610431
 20
255.1232035072862
 30
0.0
 10
188.6387587547289
 20
255.0913768330661
 30
0.0
 10
188.6188984300979
 20
255.0638550349135
 30
0.0
 10
188.5959838103828
 20
255.0397068649361
 30
0.0
 10
188.5690324968862
 20
255.0199683881591
 30
0.0
 10
188.5389200013798
 20
255.0037486406255
 30
0.0
 10
188.5047079924776
 20
254.9928675765023
 30
0.0
 10
188.467634286591
 20
254.9851102877921
 30
0.0
 10
188.4266662623789
 20
254.9827813594682
 30
0.0
 10
188.3825637161014
 20
254.9837241162466
 30
0.0
 10
188.3347639506092
 20
254.9898843285863
 30
0.0
 10
188.2837141154706
 20
254.9992719036996
 30
0.0
 10
188.2484940936064
 20
255.0090109409847
 30
0.0
 10
188.230397122184
 20
255.0140151138984
 30
0.0
  0
SPLINE
  5
36A
330
1F
100
AcDbEntity
  8
0
  6
SLD-Durchgehend
 62
     7
370
    15
100
AcDbSpline
210
0.0
220
0.0
230
1.0
 70
     8
 71
     3
 72
    23
 73
    19
 74
     0
 42
0.000000001
 43
0.00000001
 40
0.0
 40
0.0
 40
0.0
 40
0.0
 40
0.0612110271793107
 40
0.1184594960739766
 40
0.1726331058914157
 40
0.2237768589706944
 40
0.2712457424507512
 40
0.3159764808950314
 40
0.3576308604522537
 40
0.3965150371727527
 40
0.4698251775330549
 40
0.5405346352374233
 40
0.6117536143254616
 40
0.6843458494326411
 40
0.7589299383044528
 40
0.8352216862935904
 40
0.9153235255430701
 40
1.0
 40
1.0
 40
1.0
 40
1.0
 10
188.1649781735803
 20
255.8395099234166
 30
0.0
 10
188.1806893724053
 20
255.8351535385386
 30
0.0
 10
188.2110946895727
 20
255.8267227838017
 30
0.0
 10
188.2553658674642
 20
255.812581959845
 30
0.0
 10
188.2969239968152
 20
255.797619570893
 30
0.0
 10
188.3358602531163
 20
255.7824301528884
 30
0.0
 10
188.3720923462016
 20
255.7662630387003
 30
0.0
 10
188.4054994084991
 20
255.7493653294131
 30
0.0
 10
188.4363526987077
 20
255.7321198759937
 30
0.0
 10
188.4731764923388
 20
255.708205436323
 30
0.0
 10
188.5149537114288
 20
255.6756779062908
 30
0.0
 10
188.5592616233025
 20
255.6312369303195
 30
0.0
 10
188.5970594995237
 20
255.581805103156
 30
0.0
 10
188.6281685491025
 20
255.5278749612721
 30
0.0
 10
188.6521767536596
 20
255.4706497847129
 30
0.0
 10
188.6696078408649
 20
255.4108613021245
 30
0.0
 10
188.6803948408578
 20
255.3486549994425
 30
0.0
 10
188.6815402896318
 20
255.3073255228766
 30
0.0
 10
188.6821289142006
 20
255.2860870826472
 30
0.0
  0
LINE
  5
36B
330
1F
100
AcDbEntity
  8
0
  6
SLD-Durchgehend
 62
     7
370
    15
100
AcDbLine
 10
184.7200884072
 20
263.1269689654
 30
0.0
 11
184.7200884072
 21
254.2785066382
 31
0.0
  0
LWPOLYLINE
  5
36C
330
1F
100
AcDbEntity
  8
0
  6
SLD-Durchgehend
 62
     7
370
    15
100
AcDbPolyline
 90
       23
 70
   128
 43
0.0
 10
180.8733127936
 20
274.9658381918
 10
180.5068192211
 20
274.7543050083
 10
179.9556418207
 20
274.3346636827
 10
179.4007121663
 20
273.7930353278
 10
178.8495347659
 20
273.1367445737
 10
178.3095633831
 20
272.374667112
 10
177.7880999546
 20
271.517107088
 10
177.2921968503
 20
270.5756633845
 10
176.8285599743
 20
269.5630663922
 10
176.4034590658
 20
268.4930094329
 10
176.0226431601
 20
267.3799640649
 10
175.6912623535
 20
266.2389823811
 10
175.4137973904
 20
265.0854937712
 10
175.1940009868
 20
263.9350969717
 10
175.034845238
 20
262.8033492749
 10
174.9384829354
 20
261.7055561401
 10
174.9062167071
 20
260.6565628535
 10
174.9384829354
 20
259.6705552231
 10
175.034845238
 20
258.7608672111
 10
175.1940009868
 20
257.9398012943
 10
175.4137973904
 20
257.218460551
 10
175.6912623535
 20
256.6066005611
 10
175.823507122
 20
256.3852508742
  0
LINE
  5
36D
330
1F
100
AcDbEntity
  8
0
  6
SLD-Durchgehend
 62
     7
370
    15
100
AcDbLine
 10
188.6622864054
 20
258.7912492288
 30
0.0
 11
187.1378892524
 21
259.2055477111
 31
0.0
  0
LINE
  5
36E
330
1F
100
AcDbEntity
  8
0
  6
SLD-Durchgehend
 62
     7
370
    15
100
AcDbLine
 10
187.1378892524
 20
259.2055477111
 30
0.0
 11
187.1378892524
 21
259.5018536439
 31
0.0
  0
SPLINE
  5
36F
330
1F
100
AcDbEntity
  8
0
  6
SLD-Durchgehend
 62
     7
370
    15
100
AcDbSpline
210
0.0
220
0.0
230
1.0
 70
     8
 71
     3
 72
    15
 73
    11
 74
     0
 42
0.000000001
 43
0.00000001
 40
0.0
 40
0.0
 40
0.0
 40
0.0
 40
0.0892047702332458
 40
0.1898334556643495
 40
0.2992325919749821
 40
0.4192609378429075
 40
0.5492073901909386
 40
0.6890743636843496
 40
0.8395791979483186
 40
1.0
 40
1.0
 40
1.0
 40
1.0
 10
188.4512289070832
 20
259.5697843653717
 30
0.0
 10
188.4438883470469
 20
259.573873460678
 30
0.0
 10
188.428267165864
 20
259.5825753169859
 30
0.0
 10
188.4037055362259
 20
259.596475103806
 30
0.0
 10
188.3765253292207
 20
259.6115491351151
 30
0.0
 10
188.3471937282816
 20
259.6287198585416
 30
0.0
 10
188.3152506126579
 20
259.6469902054679
 30
0.0
 10
188.2807225100753
 20
259.6664389945935
 30
0.0
 10
188.2439541422293
 20
259.6880413891899
 30
0.0
 10
188.2184988360375
 20
259.7026747155502
 30
0.0
 10
188.2053652756012
 20
259.7102247200439
 30
0.0
  0
LINE
  5
370
330
1F
100
AcDbEntity
  8
0
  6
SLD-Durchgehend
 62
     7
370
    15
100
AcDbLine
 10
188.2053653433
 20
259.7102249073
 30
0.0
 11
187.1378892524
 21
260.3323826372
 31
0.0
  0
LINE
  5
371
330
1F
100
AcDbEntity
  8
0
  6
SLD-Durchgehend
 62
     7
370
    15
100
AcDbLine
 10
187.1378892524
 20
260.3323826372
 30
0.0
 11
187.1378892524
 21
260.6187792813
 31
0.0
  0
LINE
  5
372
330
1F
100
AcDbEntity
  8
0
  6
SLD-Durchgehend
 62
     7
370
    15
100
AcDbLine
 10
188.6622864054
 20
260.0220536523
 30
0.0
 11
187.3760019577
 21
260.3716382034
 31
0.0
  0
LINE
  5
373
330
1F
100
AcDbEntity
  8
0
  6
SLD-Durchgehend
 62
     7
370
    15
100
AcDbLine
 10
188.6622864054
 20
259.3935528466
 30
0.0
 11
187.3760019577
 21
259.3523782934
 31
0.0
  0
LINE
  5
374
330
1F
100
AcDbEntity
  8
0
  6
SLD-Durchgehend
 62
     7
370
    15
100
AcDbLine
 10
187.3760019577
 20
260.3716382034
 30
0.0
 11
187.3526672279
 21
260.3488627918
 31
0.0
  0
LINE
  5
375
330
1F
100
AcDbEntity
  8
0
  6
SLD-Durchgehend
 62
     7
370
    15
100
AcDbLine
 10
187.1378892524
 20
260.3323826372
 30
0.0
 11
187.1145545226
 21
260.3096072256
 31
0.0
  0
LINE
  5
376
330
1F
100
AcDbEntity
  8
0
  6
SLD-Durchgehend
 62
     7
370
    15
100
AcDbLine
 10
188.4512290698
 20
259.5697844589
 30
0.0
 11
188.42789434
 21
259.5470090472
 31
0.0
  0
LINE
  5
377
330
1F
100
AcDbEntity
  8
0
  6
SLD-Durchgehend
 62
     7
370
    15
100
AcDbLine
 10
187.3760019577
 20
259.3523782934
 30
0.0
 11
187.3526672279
 21
259.3296028817
 31
0.0
  0
LINE
  5
378
330
1F
100
AcDbEntity
  8
0
  6
SLD-Durchgehend
 62
     7
370
    15
100
AcDbLine
 10
187.1378892524
 20
259.2055477111
 30
0.0
 11
187.1145545226
 21
259.1827722995
 31
0.0
  0
LINE
  5
379
330
1F
100
AcDbEntity
  8
0
  6
SLD-Durchgehend
 62
     7
370
    15
100
AcDbLine
 10
188.6622864054
 20
257.0796619428
 30
0.0
 11
187.1378892524
 21
257.4939604251
 31
0.0
  0
LINE
  5
37A
330
1F
100
AcDbEntity
  8
0
  6
SLD-Durchgehend
 62
     7
370
    15
100
AcDbLine
 10
187.1378892524
 20
257.4939604251
 30
0.0
 11
187.1378892524
 21
257.7902663329
 31
0.0
  0
SPLINE
  5
37B
330
1F
100
AcDbEntity
  8
0
  6
SLD-Durchgehend
 62
     7
370
    15
100
AcDbSpline
210
0.0
220
0.0
230
1.0
 70
     8
 71
     3
 72
    15
 73
    11
 74
     0
 42
0.000000001
 43
0.00000001
 40
0.0
 40
0.0
 40
0.0
 40
0.0
 40
0.0892047702332454
 40
0.189833455664349
 40
0.2992325919749815
 40
0.4192609378429064
 40
0.5492073901909387
 40
0.6890743636843488
 40
0.8395791979483186
 40
1.0
 40
1.0
 40
1.0
 40
1.0
 10
188.4512289070832
 20
257.8581970950594
 30
0.0
 10
188.4438883470469
 20
257.8622861903658
 30
0.0
 10
188.428267165864
 20
257.8709880466736
 30
0.0
 10
188.4037055362259
 20
257.8848878334937
 30
0.0
 10
188.3765253292207
 20
257.8999618648028
 30
0.0
 10
188.3471937282816
 20
257.9171325882293
 30
0.0
 10
188.3152506126579
 20
257.9354029351557
 30
0.0
 10
188.2807225100753
 20
257.9548517242812
 30
0.0
 10
188.2439541422293
 20
257.9764541188777
 30
0.0
 10
188.2184988360375
 20
257.9910874452379
 30
0.0
 10
188.2053652756012
 20
257.9986374497316
 30
0.0
  0
LINE
  5
37C
330
1F
100
AcDbEntity
  8
0
  6
SLD-Durchgehend
 62
     7
370
    15
100
AcDbLine
 10
188.2053653433
 20
257.9986375963
 30
0.0
 11
187.1378892524
 21
258.6207954509
 31
0.0
  0
LINE
  5
37D
330
1F
100
AcDbEntity
  8
0
  6
SLD-Durchgehend
 62
     7
370
    15
100
AcDbLine
 10
187.1378892524
 20
258.6207954509
 30
0.0
 11
187.1378892524
 21
258.9071918955
 31
0.0
  0
LINE
  5
37E
330
1F
100
AcDbEntity
  8
0
  6
SLD-Durchgehend
 62
     7
370
    15
100
AcDbLine
 10
188.6622864054
 20
258.3104662665
 30
0.0
 11
187.3760019577
 21
258.6600508176
 31
0.0
  0
LINE
  5
37F
330
1F
100
AcDbEntity
  8
0
  6
SLD-Durchgehend
 62
     7
370
    15
100
AcDbLine
 10
188.6622864054
 20
257.6819654857
 30
0.0
 11
187.3760019577
 21
257.6407910073
 31
0.0
  0
LWPOLYLINE
  5
380
330
1F
100
AcDbEntity
  8
0
  6
SLD-Durchgehend
 62
     7
370
    15
100
AcDbPolyline
 90
       31
 70
   128
 43
0.0
 10
182.7787956787
 20
275.1709882849
 10
182.5695978506
 20
275.2696284385
 10
182.0991592314
 20
275.3787552081
 10
181.595981274
 20
275.3517756706
 10
181.066868112
 20
275.1890546404
 10
180.5189753431
 20
274.8927919928
 10
179.959712207
 20
274.4669942438
 10
179.39664178
 20
273.9174202453
 10
178.8373786439
 20
273.2515020626
 10
178.289485875
 20
272.4782444325
 10
177.760372713
 20
271.6081041291
 10
177.2571947556
 20
270.6528494423
 10
176.7867561364
 20
269.6253976443
 10
176.3554191738
 20
268.5396433802
 10
175.9690167894
 20
267.4102698077
 10
175.6327744902
 20
266.2525499093
 10
175.3512395212
 20
265.0821396365
 10
175.1282184941
 20
263.914866355
 10
174.9667282726
 20
262.7665164574
 10
174.8689520733
 20
261.6526185864
 10
174.8362125176
 20
260.5882366186
 10
174.8689520733
 20
259.5877642707
 10
174.9667282726
 20
258.6647315358
 10
175.1282184941
 20
257.8316204519
 10
175.3512395212
 20
257.0996978893
 10
175.6327744902
 20
256.4788611377
 10
175.9690167894
 20
255.9775068233
 10
176.3554191738
 20
255.6024143966
 10
176.7867561364
 20
255.3586563302
 10
177.2571947556
 20
255.2495295606
 10
177.3630194743
 20
255.243824336
  0
LWPOLYLINE
  5
381
330
1F
100
AcDbEntity
  8
0
  6
SLD-Durchgehend
 62
     7
370
    15
100
AcDbPolyline
 90
       29
 70
   128
 43
0.0
 10
164.3570479705
 20
280.2294389528
 10
164.0570288982
 20
280.2822196365
 10
163.5538509407
 20
280.2552400991
 10
163.0247377787
 20
280.0925190689
 10
162.4768450099
 20
279.7962564213
 10
161.9175818737
 20
279.3704586722
 10
161.3545114468
 20
278.8208846738
 10
160.7952483106
 20
278.1549664911
 10
160.2473555418
 20
277.381708861
 10
159.7182423798
 20
276.5115685575
 10
159.2150644223
 20
275.5563138708
 10
158.7446258032
 20
274.5288620727
 10
158.3132888405
 20
273.4431078087
 10
157.9268864561
 20
272.3137342362
 10
157.5906441569
 20
271.1560143378
 10
157.3091091879
 20
269.985604065
 10
157.0860881608
 20
268.8183307835
 10
156.9245979393
 20
267.6699808859
 10
156.82682174
 20
266.5560830149
 10
156.7940821844
 20
265.4917010471
 10
156.82682174
 20
264.4912286992
 10
156.9245979393
 20
263.5681959643
 10
157.0860881608
 20
262.7350848803
 10
157.3091091879
 20
262.0031623178
 10
157.5906441569
 20
261.3823255662
 10
157.9268864561
 20
260.8809712518
 10
158.3132888405
 20
260.5058788251
 10
158.7446258032
 20
260.2621207587
 10
158.91504535
 20
260.2057746728
  0
LINE
  5
382
330
1F
100
AcDbEntity
  8
0
  6
SLD-Durchgehend
 62
     7
370
    15
100
AcDbLine
 10
173.6254671418
 20
272.9539549167
 30
0.0
 11
170.5300040322
 21
273.7952354622
 31
0.0
  0
SPLINE
  5
383
330
1F
100
AcDbEntity
  8
0
  6
SLD-Durchgehend
 62
     7
370
    15
100
AcDbSpline
210
0.0
220
0.0
230
1.0
 70
     8
 71
     3
 72
    36
 73
    32
 74
     0
 42
0.000000001
 43
0.00000001
 40
0.0
 40
0.0
 40
0.0
 40
0.0
 40
0.1249999999999996
 40
0.1249999999999996
 40
0.1874999999999998
 40
0.1874999999999998
 40
0.2499999999999999
 40
0.2499999999999999
 40
0.3125000000000001
 40
0.3125000000000001
 40
0.3750000000000002
 40
0.3750000000000002
 40
0.4375000000000004
 40
0.4375000000000004
 40
0.4687500000000004
 40
0.4687500000000004
 40
0.5000000000000004
 40
0.5000000000000004
 40
0.5625000000000004
 40
0.5625000000000004
 40
0.6250000000000006
 40
0.6250000000000006
 40
0.6875000000000006
 40
0.6875000000000006
 40
0.7500000000000006
 40
0.7500000000000006
 40
0.8125000000000007
 40
0.8125000000000007
 40
0.8750000000000007
 40
0.8750000000000007
 40
1.0
 40
1.0
 40
1.0
 40
1.0
 10
173.6254667538755
 20
272.9539550926353
 30
0.0
 10
174.0345532873374
 20
272.9992613541659
 30
0.0
 10
174.4343371523982
 20
273.0868869693841
 30
0.0
 10
175.023660189377
 20
273.2662135029711
 30
0.0
 10
175.2188499583241
 20
273.3344668691655
 30
0.0
 10
175.5942153393968
 20
273.4812338758287
 30
0.0
 10
175.775921829816
 20
273.5601612184187
 30
0.0
 10
176.1277313098709
 20
273.7273301906518
 30
0.0
 10
176.2990025931024
 20
273.8162476218168
 30
0.0
 10
176.6237627160305
 20
273.9992559835248
 30
0.0
 10
176.7759728537126
 20
274.0924980799971
 30
0.0
 10
177.060496335097
 20
274.2812048131202
 30
0.0
 10
177.1928117890963
 20
274.3766734988252
 30
0.0
 10
177.3756741247568
 20
274.5210510290725
 30
0.0
 10
177.4340831392398
 20
274.5694614434052
 30
0.0
 10
177.5434556247742
 20
274.6648395864881
 30
0.0
 10
177.594711296965
 20
274.7120278942602
 30
0.0
 10
177.7383850967162
 20
274.8520932417169
 30
0.0
 10
177.8207620215275
 20
274.9434612787383
 30
0.0
 10
177.9584811265917
 20
275.1224184850211
 30
0.0
 10
178.0137626561902
 20
275.2103327736709
 30
0.0
 10
178.0934865474051
 20
275.3773117909589
 30
0.0
 10
178.1186280751559
 20
275.4571378807903
 30
0.0
 10
178.1400372405084
 20
275.6109460444374
 30
0.0
 10
178.1360579831411
 20
275.6854144815307
 30
0.0
 10
178.0992920111914
 20
275.8264118497326
 30
0.0
 10
178.0667681361893
 20
275.893263995696
 30
0.0
 10
177.974016703868
 20
276.0219784931675
 30
0.0
 10
177.9133777833893
 20
276.0841523448708
 30
0.0
 10
177.6906578340133
 20
276.2642578576807
 30
0.0
 10
177.4920662858319
 20
276.3738608736621
 30
0.0
 10
177.2404736920313
 20
276.4823126874361
 30
0.0
  0
LINE
  5
384
330
1F
100
AcDbEntity
  8
0
  6
SLD-Durchgehend
 62
     7
370
    15
100
AcDbLine
 10
174.1450110117
 20
277.3235930973
 30
0.0
 11
177.2404741212
 21
276.4823125519
 31
0.0
  0
SPLINE
  5
385
330
1F
100
AcDbEntity
  8
0
  6
SLD-Durchgehend
 62
     7
370
    15
100
AcDbSpline
210
0.0
220
0.0
230
1.0
 70
     8
 71
     3
 72
    36
 73
    32
 74
     0
 42
0.000000001
 43
0.00000001
 40
0.0
 40
0.0
 40
0.0
 40
0.0
 40
0.1250000000000009
 40
0.1250000000000009
 40
0.1875000000000009
 40
0.1875000000000009
 40
0.2500000000000009
 40
0.2500000000000009
 40
0.3125000000000009
 40
0.3125000000000009
 40
0.3750000000000009
 40
0.3750000000000009
 40
0.4375000000000011
 40
0.4375000000000011
 40
0.4687500000000011
 40
0.4687500000000011
 40
0.500000000000001
 40
0.500000000000001
 40
0.562500000000001
 40
0.562500000000001
 40
0.6250000000000009
 40
0.6250000000000009
 40
0.6875000000000009
 40
0.6875000000000009
 40
0.7500000000000009
 40
0.7500000000000009
 40
0.8125000000000009
 40
0.8125000000000009
 40
0.8750000000000009
 40
0.8750000000000009
 40
1.0
 40
1.0
 40
1.0
 40
1.0
 10
174.1450102661604
 20
277.3235933188299
 30
0.0
 10
173.7359237326984
 20
277.3947043683384
 30
0.0
 10
173.3361398676376
 20
277.4478115877407
 30
0.0
 10
172.7468168306588
 20
277.4891587421142
 30
0.0
 10
172.5516270617117
 20
277.4963291490218
 30
0.0
 10
172.1762616806391
 20
277.494871048283
 30
0.0
 10
171.9945551902198
 20
277.4864057203272
 30
0.0
 10
171.642745710165
 20
277.4519138081225
 30
0.0
 10
171.4714744269334
 20
277.4256210848583
 30
0.0
 10
171.1467143040053
 20
277.3536792018345
 30
0.0
 10
170.9945041663232
 20
277.3084806340712
 30
0.0
 10
170.7099806849388
 20
277.1986090476821
 30
0.0
 10
170.5776652309395
 20
277.1339432657931
 30
0.0
 10
170.394802895279
 20
277.0209780553603
 30
0.0
 10
170.3363938807961
 20
276.9805529440607
 30
0.0
 10
170.2270213952616
 20
276.8957541135479
 30
0.0
 10
170.1757657230708
 20
276.851219479014
 30
0.0
 10
170.0320919233197
 20
276.7113078304284
 30
0.0
 10
169.9497149985083
 20
276.6096388323442
 30
0.0
 10
169.8119958934441
 20
276.389637582002
 30
0.0
 10
169.7567143638456
 20
276.2706419310823
 30
0.0
 10
169.6769904726307
 20
276.0246407294381
 30
0.0
 10
169.6518489448799
 20
275.8967906177556
 30
0.0
 10
169.6304397795274
 20
275.6327162124987
 30
0.0
 10
169.6344190368948
 20
275.4954640271599
 30
0.0
 10
169.6711850088445
 20
275.2211825261803
 30
0.0
 10
169.7037088838465
 20
275.0837200709449
 30
0.0
 10
169.7964603161678
 20
274.8098399094213
 30
0.0
 10
169.8570992366465
 20
274.6726938852435
 30
0.0
 10
170.0798191860225
 20
274.2707978099027
 30
0.0
 10
170.2784107342039
 20
274.0201177286715
 30
0.0
 10
170.5300033280045
 20
273.7952357240291
 30
0.0
  0
LINE
  5
386
330
1F
100
AcDbEntity
  8
0
  6
SLD-Durchgehend
 62
     7
370
    15
100
AcDbLine
 10
187.3760019577
 20
258.6600508176
 30
0.0
 11
187.3526672279
 21
258.637275406
 31
0.0
  0
LINE
  5
387
330
1F
100
AcDbEntity
  8
0
  6
SLD-Durchgehend
 62
     7
370
    15
100
AcDbLine
 10
187.1378892524
 20
258.6207954509
 30
0.0
 11
187.1145545226
 21
258.5980200393
 31
0.0
  0
LINE
  5
388
330
1F
100
AcDbEntity
  8
0
  6
SLD-Durchgehend
 62
     7
370
    15
100
AcDbLine
 10
188.4512290698
 20
257.8581972227
 30
0.0
 11
188.42789434
 21
257.8354218111
 31
0.0
  0
LINE
  5
389
330
1F
100
AcDbEntity
  8
0
  6
SLD-Durchgehend
 62
     7
370
    15
100
AcDbLine
 10
187.3760019577
 20
257.6407910073
 30
0.0
 11
187.3526672279
 21
257.6180155957
 31
0.0
  0
LINE
  5
38A
330
1F
100
AcDbEntity
  8
0
  6
SLD-Durchgehend
 62
     7
370
    15
100
AcDbLine
 10
187.1378892524
 20
257.4939604251
 30
0.0
 11
187.1145545226
 21
257.4711850134
 31
0.0
  0
LINE
  5
38B
330
1F
100
AcDbEntity
  8
0
  6
SLD-Durchgehend
 62
     7
370
    15
100
AcDbLine
 10
188.2537319544
 20
256.0752817857
 30
0.0
 11
188.2292386369
 21
256.2934831578
 31
0.0
  0
SPLINE
  5
38C
330
1F
100
AcDbEntity
  8
0
  6
SLD-Durchgehend
 62
     7
370
    15
100
AcDbSpline
210
0.0
220
0.0
230
1.0
 70
     8
 71
     3
 72
    10
 73
     6
 74
     0
 42
0.000000001
 43
0.00000001
 40
0.0
 40
0.0
 40
0.0
 40
0.0
 40
0.1632699264607378
 40
0.5813237847106603
 40
1.0
 40
1.0
 40
1.0
 40
1.0
 10
188.4895739838475
 20
256.3062303938921
 30
0.0
 10
188.4939815009251
 20
256.3097740812903
 30
0.0
 10
188.509674498186
 20
256.3223914065674
 30
0.0
 10
188.5234710738656
 20
256.3568167283107
 30
0.0
 10
188.525742738419
 20
256.388666610892
 30
0.0
 10
188.526879415524
 20
256.4046033971009
 30
0.0
  0
SPLINE
  5
38D
330
1F
100
AcDbEntity
  8
0
  6
SLD-Durchgehend
 62
     7
370
    15
100
AcDbSpline
210
0.0
220
0.0
230
1.0
 70
     8
 71
     3
 72
    23
 73
    19
 74
     0
 42
0.000000001
 43
0.00000001
 40
0.0
 40
0.0
 40
0.0
 40
0.0
 40
0.0735942393366707
 40
0.1438030845726417
 40
0.211314618374481
 40
0.27917152037263
 40
0.3469047428464688
 40
0.4137163819362342
 40
0.481711687395285
 40
0.5518807121997039
 40
0.5909583408062423
 40
0.6345771578211145
 40
0.6828680236044956
 40
0.7359272416396805
 40
0.7945945955668139
 40
0.8581034315720178
 40
0.9265716693605607
 40
1.0
 40
1.0
 40
1.0
 40
1.0
 10
188.5268792552315
 20
256.4046032976105
 30
0.0
 10
188.5265215697584
 20
256.4150595074617
 30
0.0
 10
188.5258226526313
 20
256.4354909331153
 30
0.0
 10
188.5186394248702
 20
256.4664771934133
 30
0.0
 10
188.5078620701989
 20
256.496458943566
 30
0.0
 10
188.4921255333515
 20
256.5250420342849
 30
0.0
 10
188.4729772416571
 20
256.5519168173461
 30
0.0
 10
188.4503810605442
 20
256.5764915942762
 30
0.0
 10
188.424267082548
 20
256.597630316044
 30
0.0
 10
188.4001567521123
 20
256.6130266163582
 30
0.0
 10
188.3786973957248
 20
256.6242835614731
 30
0.0
 10
188.3600552005439
 20
256.6329003245564
 30
0.0
 10
188.3392578212155
 20
256.6415456211553
 30
0.0
 10
188.3161749106187
 20
256.6500797412868
 30
0.0
 10
188.2908734403943
 20
256.6592512656127
 30
0.0
 10
188.2632428110463
 20
256.6676775680156
 30
0.0
 10
188.2334842592264
 20
256.6768340165735
 30
0.0
 10
188.2129110378091
 20
256.6825053916945
 30
0.0
 10
188.2022648514968
 20
256.6854402026781
 30
0.0
  0
LINE
  5
38E
330
1F
100
AcDbEntity
  8
0
  6
SLD-Durchgehend
 62
     7
370
    15
100
AcDbLine
 10
188.2022650172
 20
256.6854403795
 30
0.0
 11
187.1378892524
 21
256.9747149056
 31
0.0
  0
LINE
  5
38F
330
1F
100
AcDbEntity
  8
0
  6
SLD-Durchgehend
 62
     7
370
    15
100
AcDbLine
 10
187.1378892524
 20
256.9747149056
 30
0.0
 11
187.1378892524
 21
257.1571420523
 31
0.0
  0
SPLINE
  5
390
330
1F
100
AcDbEntity
  8
0
  6
SLD-Durchgehend
 62
     7
370
    15
100
AcDbSpline
210
0.0
220
0.0
230
1.0
 70
     8
 71
     3
 72
    10
 73
     6
 74
     0
 42
0.000000001
 43
0.00000001
 40
0.0
 40
0.0
 40
0.0
 40
0.0
 40
0.3486381604894393
 40
0.6737458231504986
 40
1.0
 40
1.0
 40
1.0
 40
1.0
 10
188.65281513152
 20
256.1550649805797
 30
0.0
 10
188.6222793278912
 20
256.1176563655656
 30
0.0
 10
188.5632686615816
 20
256.0453639404327
 30
0.0
 10
188.4060194730579
 20
256.0385651591441
 30
0.0
 10
188.3045539931497
 20
256.0630285568692
 30
0.0
 10
188.2537319544332
 20
256.0752817857254
 30
0.0
  0
LINE
  5
391
330
1F
100
AcDbEntity
  8
0
  6
SLD-Durchgehend
 62
     7
370
    15
100
AcDbLine
 10
188.5268794155
 20
256.4046033971
 30
0.0
 11
188.5035446857
 21
256.3818279855
 31
0.0
  0
LINE
  5
392
330
1F
100
AcDbEntity
  8
0
  6
SLD-Durchgehend
 62
     7
370
    15
100
AcDbLine
 10
188.2537319544
 20
256.0752817857
 30
0.0
 11
188.2303972246
 21
256.0525063741
 31
0.0
  0
LINE
  5
393
330
1F
100
AcDbEntity
  8
0
  6
SLD-Durchgehend
 62
     7
370
    15
100
AcDbLine
 10
187.1378892524
 20
256.9747149056
 30
0.0
 11
187.1145545226
 21
256.9519394939
 31
0.0
  0
LINE
  5
394
330
1F
100
AcDbEntity
  8
0
  6
SLD-Durchgehend
 62
     7
370
    15
100
AcDbLine
 10
188.2537319544
 20
255.036790647
 30
0.0
 11
188.2292386369
 21
255.2549919192
 31
0.0
  0
SPLINE
  5
395
330
1F
100
AcDbEntity
  8
0
  6
SLD-Durchgehend
 62
     7
370
    15
100
AcDbSpline
210
0.0
220
0.0
230
1.0
 70
     8
 71
     3
 72
    10
 73
     6
 74
     0
 42
0.000000001
 43
0.00000001
 40
0.0
 40
0.0
 40
0.0
 40
0.0
 40
0.1632692488062275
 40
0.581323841566425
 40
1.0
 40
1.0
 40
1.0
 40
1.0
 10
188.4895739838475
 20
255.2677392551193
 30
0.0
 10
188.4939815027529
 20
255.2712829074287
 30
0.0
 10
188.509674573191
 20
255.2839001613739
 30
0.0
 10
188.5234710416737
 20
255.318325584615
 30
0.0
 10
188.5257427283995
 20
255.3501754805224
 30
0.0
 10
188.526879415524
 20
255.3661122583281
 30
0.0
  0
SPLINE
  5
396
330
1F
100
AcDbEntity
  8
0
  6
SLD-Durchgehend
 62
     7
370
    15
100
AcDbSpline
210
0.0
220
0.0
230
1.0
 70
     8
 71
     3
 72
    23
 73
    19
 74
     0
 42
0.000000001
 43
0.00000001
 40
0.0
 40
0.0
 40
0.0
 40
0.0
 40
0.073594239336671
 40
0.1438030845726416
 40
0.2113146183744808
 40
0.2791715203726298
 40
0.3469047428464692
 40
0.4137163819362344
 40
0.4817116873952846
 40
0.5518807121997044
 40
0.5909583408062421
 40
0.634577157821114
 40
0.682868023604495
 40
0.73592724163968
 40
0.7945945955668142
 40
0.8581034315720172
 40
0.9265716693605599
 40
1.0
 40
1.0
 40
1.0
 40
1.0
 10
188.5268792552315
 20
255.3661121448368
 30
0.0
 10
188.5265215697584
 20
255.376568354688
 30
0.0
 10
188.5258226526313
 20
255.3969997803415
 30
0.0
 10
188.5186394248702
 20
255.4279860406396
 30
0.0
 10
188.5078620701989
 20
255.4579677907923
 30
0.0
 10
188.4921255333515
 20
255.4865508815112
 30
0.0
 10
188.4729772416571
 20
255.5134256645723
 30
0.0
 10
188.4503810605442
 20
255.5380004415024
 30
0.0
 10
188.424267082548
 20
255.5591391632703
 30
0.0
 10
188.4001567521123
 20
255.5745354635845
 30
0.0
 10
188.3786973957248
 20
255.5857924086994
 30
0.0
 10
188.3600552005439
 20
255.5944091717827
 30
0.0
 10
188.3392578212155
 20
255.6030544683815
 30
0.0
 10
188.3161749106187
 20
255.6115885885131
 30
0.0
 10
188.2908734403943
 20
255.620760112839
 30
0.0
 10
188.2632428110463
 20
255.6291864152418
 30
0.0
 10
188.2334842592264
 20
255.6383428637997
 30
0.0
 10
188.2129110378091
 20
255.6440142389207
 30
0.0
 10
188.2022648514968
 20
255.6469490499044
 30
0.0
  0
LINE
  5
397
330
1F
100
AcDbEntity
  8
0
  6
SLD-Durchgehend
 62
     7
370
    15
100
AcDbLine
 10
188.2022650172
 20
255.646949141
 30
0.0
 11
187.1378892524
 21
255.936223667
 31
0.0
  0
LINE
  5
398
330
1F
100
AcDbEntity
  8
0
  6
SLD-Durchgehend
 62
     7
370
    15
100
AcDbLine
 10
187.1378892524
 20
255.936223667
 30
0.0
 11
187.1378892524
 21
256.1186508137
 31
0.0
  0
SPLINE
  5
399
330
1F
100
AcDbEntity
  8
0
  6
SLD-Durchgehend
 62
     7
370
    15
100
AcDbSpline
210
0.0
220
0.0
230
1.0
 70
     8
 71
     3
 72
    10
 73
     6
 74
     0
 42
0.000000001
 43
0.00000001
 40
0.0
 40
0.0
 40
0.0
 40
0.0
 40
0.3486381883069956
 40
0.6737457971189422
 40
1.0
 40
1.0
 40
1.0
 40
1.0
 10
188.65281513152
 20
255.1165737420195
 30
0.0
 10
188.622279332642
 20
255.0791651144395
 30
0.0
 10
188.5632686825016
 20
255.0068726735844
 30
0.0
 10
188.4060194494007
 20
255.0000740538517
 30
0.0
 10
188.3045539894026
 20
255.0245374282696
 30
0.0
 10
188.2537319544332
 20
255.0367906469526
 30
0.0
  0
LINE
  5
39A
330
1F
100
AcDbEntity
  8
0
  6
SLD-Durchgehend
 62
     7
370
    15
100
AcDbLine
 10
188.5268794155
 20
255.3661122583
 30
0.0
 11
188.5035446857
 21
255.3433368467
 31
0.0
  0
LINE
  5
39B
330
1F
100
AcDbEntity
  8
0
  6
SLD-Durchgehend
 62
     7
370
    15
100
AcDbLine
 10
188.2537319544
 20
255.036790647
 30
0.0
 11
188.2303972246
 21
255.0140152353
 31
0.0
  0
LINE
  5
39C
330
1F
100
AcDbEntity
  8
0
  6
SLD-Durchgehend
 62
     7
370
    15
100
AcDbLine
 10
187.1378892524
 20
255.936223667
 30
0.0
 11
187.1145545226
 21
255.9134482554
 31
0.0
  0
ARC
  5
39D
330
1F
100
AcDbEntity
  8
0
  6
SLD-Durchgehend
 62
     7
370
    15
100
AcDbCircle
 10
191.1316982501
 20
270.7347957706
 30
0.0
 40
0.3662322207770167
100
AcDbArc
 50
53.9218559721
 51
126.7176885209
  0
ARC
  5
39E
330
1F
100
AcDbEntity
  8
0
  6
SLD-Durchgehend
 62
     7
370
    15
100
AcDbCircle
 10
176.3270105804
 20
274.8705408363
 30
0.0
 40
1.852626163999974
100
AcDbArc
 50
15.4595768289
 51
60.4578211259
  0
LWPOLYLINE
  5
39F
330
1F
100
AcDbEntity
  8
0
  6
SLD-Durchgehend
 62
     7
370
    15
100
AcDbPolyline
 90
       10
 70
   128
 43
0.0
 10
174.1450110117
 20
277.3235930973
 10
173.334685521
 20
277.3092421711
 10
172.5443989802
 20
277.2158947352
 10
171.8029137231
 20
277.046948438
 10
171.1372158833
 20
276.8085525933
 10
170.5715369852
 20
276.5093829574
 10
170.1264610316
 20
276.1603293388
 10
169.8181914978
 20
275.7740946667
 10
169.6579436615
 20
275.3647375556
 10
169.6352391608
 20
275.1387739962
  0
LWPOLYLINE
  5
3A0
330
1F
100
AcDbEntity
  8
0
  6
SLD-Durchgehend
 62
     8
370
     0
100
AcDbPolyline
 90
       16
 70
   128
 43
0.0
 10
176.5852381328
 20
275.6959328787
 10
176.5769642741
 20
275.5871499999
 10
176.4556993142
 20
275.2703699387
 10
176.1958609302
 20
274.9765318643
 10
175.8114554815
 20
274.7214771133
 10
175.3232067565
 20
274.5189555823
 10
174.7574370955
 20
274.3798851757
 10
174.1446470931
 20
274.3117631193
 10
173.5178719253
 20
274.3182621477
 10
172.9109022622
 20
274.3990316409
 10
172.3564595117
 20
274.5497173003
 10
171.8844333214
 20
274.7621957599
 10
171.5202704636
 20
275.0250124536
 10
171.2836040595
 20
275.3239985597
 10
171.1871921668
 20
275.6430357237
 10
171.1852383732
 20
275.6959327776
  0
LWPOLYLINE
  5
3A1
330
1F
100
AcDbEntity
  8
0
  6
SLD-Durchgehend
 62
     8
370
     0
100
AcDbPolyline
 90
        3
 70
   128
 43
0.0
 10
171.2888892325
 20
275.8525863097
 10
171.2871208204
 20
275.7307112004
 10
171.2880677607
 20
275.7191929725
  0
LWPOLYLINE
  5
3A2
330
1F
100
AcDbEntity
  8
0
  6
SLD-Durchgehend
 62
     8
370
     0
100
AcDbPolyline
 90
        6
 70
   128
 43
0.0
 10
176.4794112123
 20
275.6920390788
 10
176.4543077132
 20
275.9875902002
 10
176.2928448192
 20
276.2871827202
 10
176.001586752
 20
276.5595219912
 10
175.5962369191
 20
276.7899254998
 10
175.0986470912
 20
276.9659726097
  0
LWPOLYLINE
  5
3A3
330
1F
100
AcDbEntity
  8
0
  6
SLD-Durchgehend
 62
     8
370
     0
100
AcDbPolyline
 90
        7
 70
   128
 43
0.0
 10
174.9175599693
 20
276.7892260272
 10
175.3716433338
 20
276.6253466222
 10
175.7323300499
 20
276.4084547611
 10
175.9769579505
 20
276.1521781392
 10
176.0901546944
 20
275.8726200846
 10
176.0648100972
 20
275.5873454972
 10
176.0614904657
 20
275.5777166694
  0
LWPOLYLINE
  5
3A4
330
1F
100
AcDbEntity
  8
0
  6
SLD-Durchgehend
 62
     8
370
     0
100
AcDbPolyline
 90
       10
 70
   128
 43
0.0
 10
171.6750180123
 20
275.7362195784
 10
171.6755701482
 20
275.8337267054
 10
171.7701379236
 20
276.1151150735
 10
171.9976031432
 20
276.3755511413
 10
172.3436774571
 20
276.5986696146
 10
172.7866122591
 20
276.7704521322
 10
173.2985776597
 20
276.8801045115
 10
173.8474059074
 20
276.920736754
 10
174.3986120801
 20
276.8897956675
 10
174.9175599693
 20
276.7892260272
  0
LWPOLYLINE
  5
3A5
330
1F
100
AcDbEntity
  8
0
  6
SLD-Durchgehend
 62
     8
370
     0
100
AcDbPolyline
 90
        3
 70
   128
 43
0.0
 10
175.1952757535
 20
276.5564805155
 10
174.8710516539
 20
276.6652343356
 10
174.8519669103
 20
276.6703572979
  0
ARC
  5
3A6
330
1F
100
AcDbEntity
  8
0
  6
SLD-Durchgehend
 62
     8
370
     0
100
AcDbCircle
 10
198.5611581303
 20
260.9602994811
 30
0.0
 40
19.67882456752321
100
AcDbArc
 50
151.9245061556
 51
155.299914361
  0
LINE
  5
3A7
330
1F
100
AcDbEntity
  8
0
  6
SLD-Durchgehend
 62
     8
370
     0
100
AcDbLine
 10
180.7557662866
 20
270.3420170145
 30
0.0
 11
181.1979754199
 21
270.2218340475
 31
0.0
  0
ARC
  5
3A8
330
1F
100
AcDbEntity
  8
0
  6
SLD-Durchgehend
 62
     8
370
     0
100
AcDbCircle
 10
198.1189489971
 20
261.0804824481
 30
0.0
 40
19.67882456765569
100
AcDbArc
 50
151.9245061557
 51
155.2999143609
  0
LINE
  5
3A9
330
1F
100
AcDbEntity
  8
0
  6
SLD-Durchgehend
 62
     8
370
     0
100
AcDbLine
 10
179.5942830948
 20
269.4792938995
 30
0.0
 11
180.2405882443
 21
269.3036420085
 31
0.0
  0
ARC
  5
3AA
330
1F
100
AcDbEntity
  8
0
  6
SLD-Durchgehend
 62
     8
370
     0
100
AcDbCircle
 10
197.2681605391
 20
261.3554855517
 30
0.0
 40
19.45153479773986
100
AcDbArc
 50
151.3972133641
 51
155.3140949273
  0
LINE
  5
3AB
330
1F
100
AcDbEntity
  8
0
  6
SLD-Durchgehend
 62
     8
370
     0
100
AcDbLine
 10
179.7482878913
 20
270.7877904507
 30
0.0
 11
180.1904970246
 21
270.6676074836
 31
0.0
  0
ARC
  5
3AC
330
1F
100
AcDbEntity
  8
0
  6
SLD-Durchgehend
 62
     8
370
     0
100
AcDbCircle
 10
197.3876787578
 20
261.1889285618
 30
0.0
 40
20.08198843997811
100
AcDbArc
 50
151.4462071716
 51
156.7931455552
  0
LINE
  5
3AD
330
1F
100
AcDbEntity
  8
0
  6
SLD-Durchgehend
 62
     8
370
     0
100
AcDbLine
 10
181.5838148622
 20
268.3811757642
 30
0.0
 11
178.9305600623
 21
269.1022735665
 31
0.0
  0
ARC
  5
3AE
330
1F
100
AcDbEntity
  8
0
  6
SLD-Durchgehend
 62
     8
370
     0
100
AcDbCircle
 10
201.4964828839
 20
259.8076345771
 30
0.0
 40
21.67994363986543
100
AcDbArc
 50
155.2668048567
 51
156.7053606615
  0
LINE
  5
3AF
330
1F
100
AcDbEntity
  8
0
  6
SLD-Durchgehend
 62
     8
370
     0
100
AcDbLine
 10
180.6827973776
 20
269.1834590415
 30
0.0
 11
181.8053287614
 21
268.8783790643
 31
0.0
  0
SPLINE
  5
3B0
330
1F
100
AcDbEntity
  8
0
  6
SLD-Durchgehend
 62
     8
370
     0
100
AcDbSpline
210
0.0
220
0.0
230
1.0
 70
     8
 71
     3
 72
    13
 73
     9
 74
     0
 42
0.000000001
 43
0.00000001
 40
0.0
 40
0.0
 40
0.0
 40
0.0
 40
0.1250239319286323
 40
0.2498717889968542
 40
0.3747916809024801
 40
0.4996652168456084
 40
0.7494619919997279
 40
1.0
 40
1.0
 40
1.0
 40
1.0
 10
179.9850042536916
 20
262.8942041787515
 30
0.0
 10
179.9656910697528
 20
262.8128303637847
 30
0.0
 10
179.927091901197
 20
262.6501973349749
 30
0.0
 10
179.7959773758292
 20
262.4465429442336
 30
0.0
 10
179.6178448743648
 20
262.2988261159792
 30
0.0
 10
179.3329203214419
 20
262.1945323956231
 30
0.0
 10
178.9440907804856
 20
262.2113519131378
 30
0.0
 10
178.641004958194
 20
262.284368438724
 30
0.0
 10
178.4892375402038
 20
262.32093078755
 30
0.0
  0
SPLINE
  5
3B1
330
1F
100
AcDbEntity
  8
0
  6
SLD-Durchgehend
 62
     8
370
     0
100
AcDbSpline
210
0.0
220
0.0
230
1.0
 70
     8
 71
     3
 72
    10
 73
     6
 74
     0
 42
0.000000001
 43
0.00000001
 40
0.0
 40
0.0
 40
0.0
 40
0.0
 40
0.2505932576733162
 40
0.5010847668644013
 40
0.9999999999999999
 40
0.9999999999999999
 40
0.9999999999999999
 40
0.9999999999999999
 10
179.8426531408157
 20
263.6291066598284
 30
0.0
 10
179.8761962179428
 20
263.5752210669868
 30
0.0
 10
179.9432687526876
 20
263.4674717604928
 30
0.0
 10
180.016530756101
 20
263.2151804083267
 30
0.0
 10
179.9976044102287
 20
263.0224883342477
 30
0.0
 10
179.9850042536916
 20
262.8942041787515
 30
0.0
  0
SPLINE
  5
3B2
330
1F
100
AcDbEntity
  8
0
  6
SLD-Durchgehend
 62
     8
370
     0
100
AcDbSpline
210
0.0
220
0.0
230
1.0
 70
     8
 71
     3
 72
    10
 73
     6
 74
     0
 42
0.000000001
 43
0.00000001
 40
0.0
 40
0.0
 40
0.0
 40
0.0
 40
0.5002364261321273
 40
0.7504057137920662
 40
1.0
 40
1.0
 40
1.0
 40
1.0
 10
178.8307128894666
 20
264.2087736062472
 30
0.0
 10
179.0161700666683
 20
264.14993315227
 30
0.0
 10
179.2943747678171
 20
264.0616664636404
 30
0.0
 10
179.6399435447865
 20
263.8604557144229
 30
0.0
 10
179.7751351235585
 20
263.7061638380109
 30
0.0
 10
179.8426531408157
 20
263.6291066598284
 30
0.0
  0
SPLINE
  5
3B3
330
1F
100
AcDbEntity
  8
0
  6
SLD-Durchgehend
 62
     8
370
     0
100
AcDbSpline
210
0.0
220
0.0
230
1.0
 70
     8
 71
     3
 72
    10
 73
     6
 74
     0
 42
0.000000001
 43
0.00000001
 40
0.0
 40
0.0
 40
0.0
 40
0.0
 40
0.249553042022067
 40
0.4996975710427717
 40
1.0
 40
1.0
 40
1.0
 40
1.0
 10
177.6979940068829
 20
264.2144405339365
 30
0.0
 10
177.7886596785372
 20
264.2480788295764
 30
0.0
 10
177.9702059163052
 20
264.3154351498566
 30
0.0
 10
178.3591570651407
 20
264.3166965297714
 30
0.0
 10
178.6420895515193
 20
264.2519430064031
 30
0.0
 10
178.8307128894666
 20
264.2087736062472
 30
0.0
  0
SPLINE
  5
3B4
330
1F
100
AcDbEntity
  8
0
  6
SLD-Durchgehend
 62
     8
370
     0
100
AcDbSpline
210
0.0
220
0.0
230
1.0
 70
     8
 71
     3
 72
    11
 73
     7
 74
     0
 42
0.000000001
 43
0.00000001
 40
0.0
 40
0.0
 40
0.0
 40
0.0
 40
0.4986673512512713
 40
0.7490446927108277
 40
0.8744960341595108
 40
1.0
 40
1.0
 40
1.0
 40
1.0
 10
177.2977340001773
 20
263.6245466524204
 30
0.0
 10
177.3308680486331
 20
263.7484278639793
 30
0.0
 10
177.3806384678947
 20
263.9345089535311
 30
0.0
 10
177.5252565193328
 20
264.0958852672869
 30
0.0
 10
177.6197496793353
 20
264.1706800144705
 30
0.0
 10
177.671908918501
 20
264.199851655053
 30
0.0
 10
177.6979940068829
 20
264.2144405339365
 30
0.0
  0
SPLINE
  5
3B5
330
1F
100
AcDbEntity
  8
0
  6
SLD-Durchgehend
 62
     8
370
     0
100
AcDbSpline
210
0.0
220
0.0
230
1.0
 70
     8
 71
     3
 72
    10
 73
     6
 74
     0
 42
0.000000001
 43
0.00000001
 40
0.0
 40
0.0
 40
0.0
 40
0.0
 40
0.2506121865645222
 40
0.5011039388521532
 40
1.0
 40
1.0
 40
1.0
 40
1.0
 10
177.4597379283404
 20
262.8945503051593
 30
0.0
 10
177.4237941650385
 20
262.9478331857891
 30
0.0
 10
177.3519239115817
 20
263.0543733414096
 30
0.0
 10
177.2697098062945
 20
263.3044243149329
 30
0.0
 10
177.286533695319
 20
263.496604782378
 30
0.0
 10
177.2977340001773
 20
263.6245466524204
 30
0.0
  0
SPLINE
  5
3B6
330
1F
100
AcDbEntity
  8
0
  6
SLD-Durchgehend
 62
     8
370
     0
100
AcDbSpline
210
0.0
220
0.0
230
1.0
 70
     8
 71
     3
 72
    10
 73
     6
 74
     0
 42
0.000000001
 43
0.00000001
 40
0.0
 40
0.0
 40
0.0
 40
0.0
 40
0.5002121463434839
 40
0.75039420244325
 40
1.0
 40
1.0
 40
1.0
 40
1.0
 10
178.4892375402038
 20
262.32093078755
 30
0.0
 10
178.3036396427487
 20
262.3794710471801
 30
0.0
 10
178.0252146039846
 20
262.4672903289729
 30
0.0
 10
177.6724228967423
 20
262.666275580478
 30
0.0
 10
177.5305784019424
 20
262.8185172421304
 30
0.0
 10
177.4597379283404
 20
262.8945503051593
 30
0.0
  0
SPLINE
  5
3B7
330
1F
100
AcDbEntity
  8
0
  6
SLD-Durchgehend
 62
     8
370
     0
100
AcDbSpline
210
0.0
220
0.0
230
1.0
 70
     8
 71
     3
 72
    13
 73
     9
 74
     0
 42
0.000000001
 43
0.00000001
 40
0.0
 40
0.0
 40
0.0
 40
0.0
 40
0.124750856896523
 40
0.5004925889026958
 40
0.6255384543209527
 40
0.7503254955720444
 40
0.874994483914976
 40
1.0
 40
1.0
 40
1.0
 40
1.0
 10
178.3508074829022
 20
256.1988019877893
 30
0.0
 10
178.3692384211415
 20
256.2340220875539
 30
0.0
 10
178.4431821857362
 20
256.375322911862
 30
0.0
 10
178.3993460728101
 20
256.6399929623615
 30
0.0
 10
178.5047350481972
 20
256.8568517939561
 30
0.0
 10
178.6464599381526
 20
256.9394401292504
 30
0.0
 10
178.8535486561267
 20
256.9589525771144
 30
0.0
 10
179.0157255951863
 20
256.9211860022936
 30
0.0
 10
179.0969233610963
 20
256.9022772627446
 30
0.0
  0
SPLINE
  5
3B8
330
1F
100
AcDbEntity
  8
0
  6
SLD-Durchgehend
 62
     8
370
     0
100
AcDbSpline
210
0.0
220
0.0
230
1.0
 70
     8
 71
     3
 72
    11
 73
     7
 74
     0
 42
0.000000001
 43
0.00000001
 40
0.0
 40
0.0
 40
0.0
 40
0.0
 40
0.250133824492791
 40
0.4998697719726521
 40
0.7497275406659265
 40
1.0
 40
1.0
 40
1.0
 40
1.0
 10
178.2126857077889
 20
256.1938948014844
 30
0.0
 10
178.2277348078951
 20
256.1902530367579
 30
0.0
 10
178.2578090701574
 20
256.1829753001021
 30
0.0
 10
178.296496089216
 20
256.1815627263131
 30
0.0
 10
178.3284698945313
 20
256.1864995751934
 30
0.0
 10
178.3433575053483
 20
256.1946989173872
 30
0.0
 10
178.3508074829022
 20
256.1988019877893
 30
0.0
  0
SPLINE
  5
3B9
330
1F
100
AcDbEntity
  8
0
  6
SLD-Durchgehend
 62
     8
370
     0
100
AcDbSpline
210
0.0
220
0.0
230
1.0
 70
     8
 71
     3
 72
    11
 73
     7
 74
     0
 42
0.000000001
 43
0.00000001
 40
0.0
 40
0.0
 40
0.0
 40
0.0
 40
0.2502749632136223
 40
0.4999777476699532
 40
0.7497210244792861
 40
0.9999999999999999
 40
0.9999999999999999
 40
0.9999999999999999
 40
0.9999999999999999
 10
178.0307162699046
 20
256.2883994486189
 30
0.0
 10
178.0436316450729
 20
256.2781653739338
 30
0.0
 10
178.0694328682716
 20
256.2577206217106
 30
0.0
 10
178.1156104517597
 20
256.2305181923142
 30
0.0
 10
178.1646700658299
 20
256.2084949307192
 30
0.0
 10
178.1966690664289
 20
256.1987649859539
 30
0.0
 10
178.2126857077889
 20
256.1938948014844
 30
0.0
  0
SPLINE
  5
3BA
330
1F
100
AcDbEntity
  8
0
  6
SLD-Durchgehend
 62
     8
370
     0
100
AcDbSpline
210
0.0
220
0.0
230
1.0
 70
     8
 71
     3
 72
     9
 73
     5
 74
     0
 42
0.000000001
 43
0.00000001
 40
0.0
 40
0.0
 40
0.0
 40
0.0
 40
0.501106039853153
 40
0.9999999999999999
 40
0.9999999999999999
 40
0.9999999999999999
 40
0.9999999999999999
 10
177.8508654014215
 20
256.5396168210701
 30
0.0
 10
177.8673800611841
 20
256.4983505384251
 30
0.0
 10
177.9003364784875
 20
256.416000138783
 30
0.0
 10
177.9873204779456
 20
256.3308702406335
 30
0.0
 10
178.0307162699046
 20
256.2883994486189
 30
0.0
  0
SPLINE
  5
3BB
330
1F
100
AcDbEntity
  8
0
  6
SLD-Durchgehend
 62
     8
370
     0
100
AcDbSpline
210
0.0
220
0.0
230
1.0
 70
     8
 71
     3
 72
    13
 73
     9
 74
     0
 42
0.000000001
 43
0.00000001
 40
0.0
 40
0.0
 40
0.0
 40
0.0
 40
0.2498562034318894
 40
0.3758151452175787
 40
0.4997927813608014
 40
0.6229619681045766
 40
0.749869701758663
 40
1.0
 40
1.0
 40
1.0
 40
1.0
 10
178.1212576519553
 20
256.7574837111307
 30
0.0
 10
178.0681758147343
 20
256.7641693146105
 30
0.0
 10
177.9883340573969
 20
256.7742253028472
 30
0.0
 10
177.9035448441529
 20
256.7597012002835
 30
0.0
 10
177.8564937295807
 20
256.7346301008041
 30
0.0
 10
177.8322791557612
 20
256.6948663027708
 30
0.0
 10
177.824084380912
 20
256.630737266757
 30
0.0
 10
177.8401844656577
 20
256.5759579166904
 30
0.0
 10
177.8508654014215
 20
256.5396168210701
 30
0.0
  0
LINE
  5
3BC
330
1F
100
AcDbEntity
  8
0
  6
SLD-Durchgehend
 62
     8
370
     0
100
AcDbLine
 10
177.9895777482
 20
257.1321770595
 30
0.0
 11
178.121257652
 21
256.7574837111
 31
0.0
  0
SPLINE
  5
3BD
330
1F
100
AcDbEntity
  8
0
  6
SLD-Durchgehend
 62
     8
370
     0
100
AcDbSpline
210
0.0
220
0.0
230
1.0
 70
     8
 71
     3
 72
    15
 73
    11
 74
     0
 42
0.000000001
 43
0.00000001
 40
0.0
 40
0.0
 40
0.0
 40
0.0
 40
0.2499810723839663
 40
0.3750553568924733
 40
0.5000197348927498
 40
0.6249508094442815
 40
0.7498784261838171
 40
0.8748028829251645
 40
0.9373911046173315
 40
1.0
 40
1.0
 40
1.0
 40
1.0
 10
177.410125799298
 20
256.6556727438359
 30
0.0
 10
177.3879960713954
 20
256.7326297048324
 30
0.0
 10
177.3547940656704
 20
256.848090928343
 30
0.0
 10
177.3776919562442
 20
256.986612067366
 30
0.0
 10
177.4291238832024
 20
257.0760465004049
 30
0.0
 10
177.5250898334606
 20
257.1384801400587
 30
0.0
 10
177.655510293272
 20
257.1712376131455
 30
0.0
 10
177.7881307425703
 20
257.1690507369689
 30
0.0
 10
177.901587029441
 20
257.1522639232223
 30
0.0
 10
177.9602442799101
 20
257.1388734178251
 30
0.0
 10
177.9895777481548
 20
257.1321770595453
 30
0.0
  0
SPLINE
  5
3BE
330
1F
100
AcDbEntity
  8
0
  6
SLD-Durchgehend
 62
     8
370
     0
100
AcDbSpline
210
0.0
220
0.0
230
1.0
 70
     8
 71
     3
 72
    13
 73
     9
 74
     0
 42
0.000000001
 43
0.00000001
 40
0.0
 40
0.0
 40
0.0
 40
0.0
 40
0.1250864339601905
 40
0.2501939564612404
 40
0.3761418601519749
 40
0.5003655287834141
 40
0.7497381287481333
 40
1.0
 40
1.0
 40
1.0
 40
1.0
 10
178.3838577286768
 20
255.8893348256221
 30
0.0
 10
178.3267245784928
 20
255.9066900096513
 30
0.0
 10
178.2124486459469
 20
255.9414033036504
 30
0.0
 10
178.0368366053441
 20
256.0201463320938
 30
0.0
 10
177.871225421515
 20
256.111733463269
 30
0.0
 10
177.6791798037561
 20
256.2501640057395
 30
0.0
 10
177.5051349255078
 20
256.437369320554
 30
0.0
 10
177.4418330638421
 20
256.5828186437193
 30
0.0
 10
177.410125799298
 20
256.6556727438359
 30
0.0
  0
SPLINE
  5
3BF
330
1F
100
AcDbEntity
  8
0
  6
SLD-Durchgehend
 62
     8
370
     0
100
AcDbSpline
210
0.0
220
0.0
230
1.0
 70
     8
 71
     3
 72
    11
 73
     7
 74
     0
 42
0.000000001
 43
0.00000001
 40
0.0
 40
0.0
 40
0.0
 40
0.0
 40
0.4985790557920489
 40
0.7490676543604899
 40
0.8745096264327419
 40
1.0
 40
1.0
 40
1.0
 40
1.0
 10
178.8459822227248
 20
255.883890774481
 30
0.0
 10
178.7907307374542
 20
255.8644694178211
 30
0.0
 10
178.7077206310511
 20
255.8352906749343
 30
0.0
 10
178.5530425922581
 20
255.852051796279
 30
0.0
 10
178.4586489320736
 20
255.8698843034175
 30
0.0
 10
178.4087913354304
 20
255.882850484553
 30
0.0
 10
178.3838577286768
 20
255.8893348256221
 30
0.0
  0
SPLINE
  5
3C0
330
1F
100
AcDbEntity
  8
0
  6
SLD-Durchgehend
 62
     8
370
     0
100
AcDbSpline
210
0.0
220
0.0
230
1.0
 70
     8
 71
     3
 72
     9
 73
     5
 74
     0
 42
0.000000001
 43
0.00000001
 40
0.0
 40
0.0
 40
0.0
 40
0.0
 40
0.5010348351576132
 40
0.9999999999999999
 40
0.9999999999999999
 40
0.9999999999999999
 40
0.9999999999999999
 10
178.9542611752891
 20
256.1815458388005
 30
0.0
 10
178.9530325943543
 20
256.1208657961167
 30
0.0
 10
178.9505805074961
 20
255.9997563673388
 30
0.0
 10
178.880800176889
 20
255.9224593122936
 30
0.0
 10
178.8459822227248
 20
255.883890774481
 30
0.0
  0
SPLINE
  5
3C1
330
1F
100
AcDbEntity
  8
0
  6
SLD-Durchgehend
 62
     8
370
     0
100
AcDbSpline
210
0.0
220
0.0
230
1.0
 70
     8
 71
     3
 72
    11
 73
     7
 74
     0
 42
0.000000001
 43
0.00000001
 40
0.0
 40
0.0
 40
0.0
 40
0.0
 40
0.4999458066118144
 40
0.5063818215671921
 40
0.7499709631105235
 40
1.0
 40
1.0
 40
1.0
 40
1.0
 10
178.9730845112341
 20
256.4336837406328
 30
0.0
 10
178.967425459562
 20
256.3913616464332
 30
0.0
 10
178.9616935565112
 20
256.3484947219188
 30
0.0
 10
178.9582194676915
 20
256.2849661188267
 30
0.0
 10
178.955786581363
 20
256.2430217099875
 30
0.0
 10
178.9547740472581
 20
256.2022152537436
 30
0.0
 10
178.9542611752891
 20
256.1815458388005
 30
0.0
  0
SPLINE
  5
3C2
330
1F
100
AcDbEntity
  8
0
  6
SLD-Durchgehend
 62
     8
370
     0
100
AcDbSpline
210
0.0
220
0.0
230
1.0
 70
     8
 71
     3
 72
    11
 73
     7
 74
     0
 42
0.000000001
 43
0.00000001
 40
0.0
 40
0.0
 40
0.0
 40
0.0
 40
0.2498249685552523
 40
0.3734134376252626
 40
0.5006354355444969
 40
1.0
 40
1.0
 40
1.0
 40
1.0
 10
179.1970926468993
 20
256.5306664659536
 30
0.0
 10
179.1641575029414
 20
256.5376512680139
 30
0.0
 10
179.1149293357365
 20
256.5480914532505
 30
0.0
 10
179.0621997680151
 20
256.5416212609931
 30
0.0
 10
179.0000892828428
 20
256.5157442263038
 30
0.0
 10
178.9850612531115
 20
256.4700779479031
 30
0.0
 10
178.9730845112341
 20
256.4336837406328
 30
0.0
  0
SPLINE
  5
3C3
330
1F
100
AcDbEntity
  8
0
  6
SLD-Durchgehend
 62
     8
370
     0
100
AcDbSpline
210
0.0
220
0.0
230
1.0
 70
     8
 71
     3
 72
    13
 73
     9
 74
     0
 42
0.000000001
 43
0.00000001
 40
0.0
 40
0.0
 40
0.0
 40
0.0
 40
0.2503813124767627
 40
0.4998902901824315
 40
0.6249952034730556
 40
0.750149831816682
 40
0.8750678524444032
 40
1.0
 40
1.0
 40
1.0
 40
1.0
 10
179.6769032075738
 20
256.0711301273736
 30
0.0
 10
179.6611061715119
 20
256.1111544223343
 30
0.0
 10
179.629567136658
 20
256.1910635666085
 30
0.0
 10
179.5508516301955
 20
256.303150291493
 30
0.0
 10
179.458548733701
 20
256.3892650196374
 30
0.0
 10
179.3788750319289
 20
256.4493377640011
 30
0.0
 10
179.2887243800951
 20
256.5008890733865
 30
0.0
 10
179.2276377092772
 20
256.5207402942913
 30
0.0
 10
179.1970926468993
 20
256.5306664659536
 30
0.0
  0
SPLINE
  5
3C4
330
1F
100
AcDbEntity
  8
0
  6
SLD-Durchgehend
 62
     8
370
     0
100
AcDbSpline
210
0.0
220
0.0
230
1.0
 70
     8
 71
     3
 72
    13
 73
     9
 74
     0
 42
0.000000001
 43
0.00000001
 40
0.0
 40
0.0
 40
0.0
 40
0.0
 40
0.2499421188190297
 40
0.3743844591038067
 40
0.5000632205424718
 40
0.6250749015448527
 40
0.750168928994792
 40
0.9999999999999999
 40
0.9999999999999999
 40
0.9999999999999999
 40
0.9999999999999999
 10
179.3102617505798
 20
255.841585155927
 30
0.0
 10
179.3764688563796
 20
255.8322952391448
 30
0.0
 10
179.4756394628018
 20
255.818380015548
 30
0.0
 10
179.5838725523546
 20
255.8268868802568
 30
0.0
 10
179.6481571911669
 20
255.8480646095969
 30
0.0
 10
179.6859902482995
 20
255.8877686511736
 30
0.0
 10
179.7085812385049
 20
255.9567819887658
 30
0.0
 10
179.6895707997989
 20
256.0254039395706
 30
0.0
 10
179.6769032075738
 20
256.0711301273736
 30
0.0
  0
LINE
  5
3C5
330
1F
100
AcDbEntity
  8
0
  6
SLD-Durchgehend
 62
     8
370
     0
100
AcDbLine
 10
179.4824296077
 20
255.5427961705
 30
0.0
 11
179.3102617506
 21
255.8415851559
 31
0.0
  0
SPLINE
  5
3C6
330
1F
100
AcDbEntity
  8
0
  6
SLD-Durchgehend
 62
     8
370
     0
100
AcDbSpline
210
0.0
220
0.0
230
1.0
 70
     8
 71
     3
 72
    13
 73
     9
 74
     0
 42
0.000000001
 43
0.00000001
 40
0.0
 40
0.0
 40
0.0
 40
0.0
 40
0.2500179916229568
 40
0.3751575725874391
 40
0.5002093047790679
 40
0.625399761640218
 40
0.7503297468038396
 40
0.9999999999999999
 40
0.9999999999999999
 40
0.9999999999999999
 40
0.9999999999999999
 10
180.1222643788301
 20
255.9419461765212
 30
0.0
 10
180.1468647715932
 20
255.8585305417626
 30
0.0
 10
180.1837782095975
 20
255.7333635213865
 30
0.0
 10
180.158408496358
 20
255.6064987068723
 30
0.0
 10
180.0963872611875
 20
255.5362810086395
 30
0.0
 10
179.9880950098901
 20
255.4976649355592
 30
0.0
 10
179.7938540389535
 20
255.485972130967
 30
0.0
 10
179.6069804517042
 20
255.5200700084692
 30
0.0
 10
179.4824296077205
 20
255.5427961704885
 30
0.0
  0
SPLINE
  5
3C7
330
1F
100
AcDbEntity
  8
0
  6
SLD-Durchgehend
 62
     8
370
     0
100
AcDbSpline
210
0.0
220
0.0
230
1.0
 70
     8
 71
     3
 72
    13
 73
     9
 74
     0
 42
0.000000001
 43
0.00000001
 40
0.0
 40
0.0
 40
0.0
 40
0.0
 40
0.1251172499686672
 40
0.2502483469588222
 40
0.3753546240226123
 40
0.5004232364817252
 40
0.7496744242234082
 40
0.9999999999999999
 40
0.9999999999999999
 40
0.9999999999999999
 40
0.9999999999999999
 10
179.0969233610963
 20
256.9022772627446
 30
0.0
 10
179.1603134013434
 20
256.8821150726797
 30
0.0
 10
179.2871004973632
 20
256.8417884611527
 30
0.0
 10
179.4758297570037
 20
256.7409969217674
 30
0.0
 10
179.6514128629984
 20
256.6207999282942
 30
0.0
 10
179.8526099310481
 20
256.4377416421916
 30
0.0
 10
180.02340318895
 20
256.1939259334072
 30
0.0
 10
180.0892634359314
 20
256.0260597662798
 30
0.0
 10
180.1222643788301
 20
255.9419461765212
 30
0.0
  0
LINE
  5
3C8
330
1F
100
AcDbEntity
  8
0
  6
SLD-Durchgehend
 62
     8
370
     0
100
AcDbLine
 10
181.5443246341
 20
254.118663651
 30
0.0
 11
181.0440965212
 21
254.2603265379
 31
0.0
  0
ARC
  5
3C9
330
1F
100
AcDbEntity
  8
0
  6
SLD-Durchgehend
 62
     8
370
     0
100
AcDbCircle
 10
182.186410468
 20
255.7249819949
 30
0.0
 40
1.729893881092598
100
AcDbArc
 50
239.8576402601
 51
248.2121676591
  0
LINE
  5
3CA
330
1F
100
AcDbEntity
  8
0
  6
SLD-Durchgehend
 62
     8
370
     0
100
AcDbLine
 10
178.6644890731
 20
254.9501014595
 30
0.0
 11
181.317743873
 21
254.2290036572
 31
0.0
  0
ARC
  5
3CB
330
1F
100
AcDbEntity
  8
0
  6
SLD-Durchgehend
 62
     8
370
     0
100
AcDbCircle
 10
179.5349921257
 20
256.4496222218
 30
0.0
 40
1.733879488623666
100
AcDbArc
 50
239.8639418043
 51
247.6158418077
  0
LINE
  5
3CC
330
1F
100
AcDbEntity
  8
0
  6
SLD-Durchgehend
 62
     8
370
     0
100
AcDbLine
 10
180.6180291856
 20
254.3725901079
 30
0.0
 11
178.8747052721
 21
254.8463881927
 31
0.0
  0
LINE
  5
3CD
330
1F
100
AcDbEntity
  8
0
  6
SLD-Durchgehend
 62
     8
370
     0
100
AcDbLine
 10
180.0707221741
 20
254.5257705484
 30
0.0
 11
180.6180291856
 21
254.3725901079
 31
0.0
  0
ARC
  5
3CE
330
1F
100
AcDbEntity
  8
0
  6
SLD-Durchgehend
 62
     8
370
     0
100
AcDbCircle
 10
181.0609689496
 20
257.3857875159
 30
0.0
 40
3.260551061999986
100
AcDbArc
 50
209.7109894772
 51
217.5133692692
  0
LINE
  5
3CF
330
1F
100
AcDbEntity
  8
0
  6
SLD-Durchgehend
 62
     8
370
     0
100
AcDbLine
 10
177.7868523124
 20
255.8899589986
 30
0.0
 11
178.2290614457
 21
255.7697760316
 31
0.0
  0
ARC
  5
3D0
330
1F
100
AcDbEntity
  8
0
  6
SLD-Durchgehend
 62
     8
370
     0
100
AcDbCircle
 10
180.1081224525
 20
257.1565822087
 30
0.0
 40
2.644358035482548
100
AcDbArc
 50
208.6195112654
 51
232.4769610415
  0
LINE
  5
3D1
330
1F
100
AcDbEntity
  8
0
  6
SLD-Durchgehend
 62
     8
370
     0
100
AcDbLine
 10
178.9397049579
 20
254.9391364339
 30
0.0
 11
178.4974958245
 21
255.0593194009
 31
0.0
  0
ARC
  5
3D2
330
1F
100
AcDbEntity
  8
0
  6
SLD-Durchgehend
 62
     8
370
     0
100
AcDbCircle
 10
180.2254747332
 20
256.6847628106
 30
0.0
 40
2.168044132915258
100
AcDbArc
 50
223.3821610603
 51
233.625886805
  0
LINE
  5
3D3
330
1F
100
AcDbEntity
  8
0
  6
SLD-Durchgehend
 62
     8
370
     0
100
AcDbLine
 10
180.8608107281
 20
254.594702451
 30
0.0
 11
178.6497650615
 21
255.1956172862
 31
0.0
  0
ARC
  5
3D4
330
1F
100
AcDbEntity
  8
0
  6
SLD-Durchgehend
 62
     8
370
     0
100
AcDbCircle
 10
182.7679215528
 20
256.4035447957
 30
0.0
 40
2.628494307728334
100
AcDbArc
 50
217.6112888781
 51
223.4851646548
  0
LINE
  5
3D5
330
1F
100
AcDbEntity
  8
0
  6
SLD-Durchgehend
 62
     8
370
     0
100
AcDbLine
 10
178.4746630954
 20
255.4002862552
 30
0.0
 11
180.685708762
 21
254.79937142
 31
0.0
  0
SPLINE
  5
3D6
330
1F
100
AcDbEntity
  8
0
  6
SLD-Durchgehend
 62
     8
370
     0
100
AcDbSpline
210
0.0
220
0.0
230
1.0
 70
     8
 71
     3
 72
    14
 73
    10
 74
     0
 42
0.000000001
 43
0.00000001
 40
0.0
 40
0.0
 40
0.0
 40
0.0
 40
0.5001454904030543
 40
0.5006735835707953
 40
0.504607889663787
 40
0.5153342262578312
 40
0.6367985410070574
 40
0.7505074275497844
 40
1.0
 40
1.0
 40
1.0
 40
1.0
 10
178.3477521990197
 20
259.5369065764675
 30
0.0
 10
178.476434331485
 20
259.3866409670116
 30
0.0
 10
178.6052523367237
 20
259.23621669524
 30
0.0
 10
178.7271266664442
 20
259.0804622335364
 30
0.0
 10
178.7308380906016
 20
259.0757984215437
 30
0.0
 10
178.7640609839498
 20
259.0339879177856
 30
0.0
 10
178.8244234337792
 20
258.9588349395852
 30
0.0
 10
178.9442420805015
 20
258.8109319931167
 30
0.0
 10
179.0510258865248
 20
258.7136464801247
 30
0.0
 10
179.1243784730882
 20
258.6468185192299
 30
0.0
  0
SPLINE
  5
3D7
330
1F
100
AcDbEntity
  8
0
  6
SLD-Durchgehend
 62
     8
370
     0
100
AcDbSpline
210
0.0
220
0.0
230
1.0
 70
     8
 71
     3
 72
     9
 73
     5
 74
     0
 42
0.000000001
 43
0.00000001
 40
0.0
 40
0.0
 40
0.0
 40
0.0
 40
0.499076910934753
 40
1.0
 40
1.0
 40
1.0
 40
1.0
 10
177.6822817021421
 20
259.9670402000866
 30
0.0
 10
177.8040583684407
 20
259.9204983655999
 30
0.0
 10
178.0480621755304
 20
259.827242529742
 30
0.0
 10
178.2477326487696
 20
259.6338042680551
 30
0.0
 10
178.3477521990197
 20
259.5369065764675
 30
0.0
  0
SPLINE
  5
3D8
330
1F
100
AcDbEntity
  8
0
  6
SLD-Durchgehend
 62
     8
370
     0
100
AcDbSpline
210
0.0
220
0.0
230
1.0
 70
     8
 71
     3
 72
    15
 73
    11
 74
     0
 42
0.000000001
 43
0.00000001
 40
0.0
 40
0.0
 40
0.0
 40
0.0
 40
0.2496676309437257
 40
0.3747176833193467
 40
0.4997262019875489
 40
0.624952649645319
 40
0.7497749799824784
 40
0.8747795717054663
 40
0.9373800953773836
 40
1.0
 40
1.0
 40
1.0
 40
1.0
 10
176.9737004149137
 20
259.3875484412897
 30
0.0
 10
176.9763529433891
 20
259.4813015805493
 30
0.0
 10
176.9803340334546
 20
259.6220124889457
 30
0.0
 10
177.0534192603343
 20
259.7829229716863
 30
0.0
 10
177.1393377090296
 20
259.8807258809921
 30
0.0
 10
177.2501456612389
 20
259.953062243635
 30
0.0
 10
177.3819488488171
 20
259.9952119877794
 30
0.0
 10
177.504886552983
 20
259.9981501778345
 30
0.0
 10
177.6057617970299
 20
259.9863439052783
 30
0.0
 10
177.6567724353864
 20
259.9734754323883
 30
0.0
 10
177.6822817021421
 20
259.9670402000866
 30
0.0
  0
SPLINE
  5
3D9
330
1F
100
AcDbEntity
  8
0
  6
SLD-Durchgehend
 62
     8
370
     0
100
AcDbSpline
210
0.0
220
0.0
230
1.0
 70
     8
 71
     3
 72
    13
 73
     9
 74
     0
 42
0.000000001
 43
0.00000001
 40
0.0
 40
0.0
 40
0.0
 40
0.0
 40
0.2500113046135767
 40
0.375135401081706
 40
0.5001478623092702
 40
0.6252607522328595
 40
0.750396979199939
 40
1.0
 40
1.0
 40
1.0
 40
1.0
 10
177.8288669426855
 20
258.4035985372914
 30
0.0
 10
177.7189917032284
 20
258.4473941043677
 30
0.0
 10
177.554126790074
 20
258.5131082033609
 30
0.0
 10
177.3481058325156
 20
258.6508286441177
 30
0.0
 10
177.2129062336444
 20
258.7787802627391
 30
0.0
 10
177.1086109424579
 20
258.9245378884369
 30
0.0
 10
177.0057309042567
 20
259.1295601254788
 30
0.0
 10
176.9865057418957
 20
259.2844084390833
 30
0.0
 10
176.9737004149137
 20
259.3875484412897
 30
0.0
  0
LINE
  5
3DA
330
1F
100
AcDbEntity
  8
0
  6
SLD-Durchgehend
 62
     8
370
     0
100
AcDbLine
 10
177.8410648191
 20
258.8427286827
 30
0.0
 11
177.8288669427
 21
258.4035985373
 31
0.0
  0
SPLINE
  5
3DB
330
1F
100
AcDbEntity
  8
0
  6
SLD-Durchgehend
 62
     8
370
     0
100
AcDbSpline
210
0.0
220
0.0
230
1.0
 70
     8
 71
     3
 72
    12
 73
     8
 74
     0
 42
0.000000001
 43
0.00000001
 40
0.0
 40
0.0
 40
0.0
 40
0.0
 40
0.2491189804629533
 40
0.3744764972619649
 40
0.4995091290468
 40
0.7492370603465445
 40
1.0
 40
1.0
 40
1.0
 40
1.0
 10
177.4163346300204
 20
259.2575075528951
 30
0.0
 10
177.4231086955812
 20
259.210134982659
 30
0.0
 10
177.4332914939322
 20
259.1389243742366
 30
0.0
 10
177.4928772651066
 20
259.0471043390745
 30
0.0
 10
177.5711442403025
 20
258.96689373333
 30
0.0
 10
177.6928872405392
 20
258.8951466591854
 30
0.0
 10
177.7916042444626
 20
258.8602254137289
 30
0.0
 10
177.841064819139
 20
258.842728682669
 30
0.0
  0
SPLINE
  5
3DC
330
1F
100
AcDbEntity
  8
0
  6
SLD-Durchgehend
 62
     8
370
     0
100
AcDbSpline
210
0.0
220
0.0
230
1.0
 70
     8
 71
     3
 72
    13
 73
     9
 74
     0
 42
0.000000001
 43
0.00000001
 40
0.0
 40
0.0
 40
0.0
 40
0.0
 40
0.2501091869632809
 40
0.3778750272165101
 40
0.5004065412977273
 40
0.6254616635637363
 40
0.7505246566408581
 40
1.0
 40
1.0
 40
1.0
 40
1.0
 10
177.7546369285174
 20
259.4577003167865
 30
0.0
 10
177.7100620487805
 20
259.4677417506209
 30
0.0
 10
177.6427165262178
 20
259.4829127530519
 30
0.0
 10
177.5599352649962
 20
259.4751480167657
 30
0.0
 10
177.5049086541862
 20
259.4554551011719
 30
0.0
 10
177.4615466694213
 20
259.4212577082646
 30
0.0
 10
177.4201402275514
 20
259.3595084914315
 30
0.0
 10
177.4178560754333
 20
259.2982866575658
 30
0.0
 10
177.4163346300204
 20
259.2575075528951
 30
0.0
  0
SPLINE
  5
3DD
330
1F
100
AcDbEntity
  8
0
  6
SLD-Durchgehend
 62
     8
370
     0
100
AcDbSpline
210
0.0
220
0.0
230
1.0
 70
     8
 71
     3
 72
     9
 73
     5
 74
     0
 42
0.000000001
 43
0.00000001
 40
0.0
 40
0.0
 40
0.0
 40
0.0
 40
0.5005541848764979
 40
1.0
 40
1.0
 40
1.0
 40
1.0
 10
178.0638457194612
 20
259.2790617362783
 30
0.0
 10
178.0156775581566
 20
259.3185384101338
 30
0.0
 10
177.9194478935968
 20
259.3974043452278
 30
0.0
 10
177.8095333082099
 20
259.4376165162516
 30
0.0
 10
177.7546369285174
 20
259.4577003167865
 30
0.0
  0
LINE
  5
3DE
330
1F
100
AcDbEntity
  8
0
  6
SLD-Durchgehend
 62
     8
370
     0
100
AcDbLine
 10
178.508357811
 20
258.785962629
 30
0.0
 11
178.0638457195
 21
259.2790617363
 31
0.0
  0
SPLINE
  5
3DF
330
1F
100
AcDbEntity
  8
0
  6
SLD-Durchgehend
 62
     8
370
     0
100
AcDbSpline
210
0.0
220
0.0
230
1.0
 70
     8
 71
     3
 72
    10
 73
     6
 74
     0
 42
0.000000001
 43
0.00000001
 40
0.0
 40
0.0
 40
0.0
 40
0.0
 40
0.2497112006482038
 40
0.4994870581178238
 40
0.9999999999999999
 40
0.9999999999999999
 40
0.9999999999999999
 40
0.9999999999999999
 10
179.6878392702416
 20
257.8410958786317
 30
0.0
 10
179.5732822681612
 20
257.8899043837698
 30
0.0
 10
179.3441386021686
 20
257.9875340318563
 30
0.0
 10
178.9284634313981
 20
258.3062541556134
 30
0.0
 10
178.67646462843
 20
258.5940055095325
 30
0.0
 10
178.5083578109842
 20
258.7859626289844
 30
0.0
  0
ARC
  5
3E0
330
1F
100
AcDbEntity
  8
0
  6
SLD-Durchgehend
 62
     8
370
     0
100
AcDbCircle
 10
193.7218408748
 20
259.2926931228
 30
0.0
 40
14.10887435610727
100
AcDbArc
 50
179.3932250863
 51
185.9053492859
  0
LINE
  5
3E1
330
1F
100
AcDbEntity
  8
0
  6
SLD-Durchgehend
 62
     8
370
     0
100
AcDbLine
 10
179.1035159981
 20
259.5807791718
 30
0.0
 11
179.6137576859
 21
259.4421064142
 31
0.0
  0
ARC
  5
3E2
330
1F
100
AcDbEntity
  8
0
  6
SLD-Durchgehend
 62
     8
370
     0
100
AcDbCircle
 10
194.302223836
 20
259.4530690709
 30
0.0
 40
15.1992443829473
100
AcDbArc
 50
179.5185723906
 51
183.0407067675
  0
SPLINE
  5
3E3
330
1F
100
AcDbEntity
  8
0
  6
SLD-Durchgehend
 62
     8
370
     0
100
AcDbSpline
210
0.0
220
0.0
230
1.0
 70
     8
 71
     3
 72
     9
 73
     5
 74
     0
 42
0.000000001
 43
0.00000001
 40
0.0
 40
0.0
 40
0.0
 40
0.0
 40
0.5000810824154711
 40
1.0
 40
1.0
 40
1.0
 40
1.0
 10
178.884039276795
 20
261.8580381634345
 30
0.0
 10
178.9855480273804
 20
261.8221395769054
 30
0.0
 10
179.1885326115904
 20
261.750354044936
 30
0.0
 10
179.348488888898
 20
261.5859780533356
 30
0.0
 10
179.4284540579105
 20
261.5038033855378
 30
0.0
  0
SPLINE
  5
3E4
330
1F
100
AcDbEntity
  8
0
  6
SLD-Durchgehend
 62
     8
370
     0
100
AcDbSpline
210
0.0
220
0.0
230
1.0
 70
     8
 71
     3
 72
    14
 73
    10
 74
     0
 42
0.000000001
 43
0.00000001
 40
0.0
 40
0.0
 40
0.0
 40
0.0
 40
0.1250738048248081
 40
0.2500771848730062
 40
0.3751048798893947
 40
0.5002147557811619
 40
0.6252927263312502
 40
0.7503641197148456
 40
1.0
 40
1.0
 40
1.0
 40
1.0
 10
177.9423332926704
 20
261.2889275640166
 30
0.0
 10
177.9499735848629
 20
261.3439356794873
 30
0.0
 10
177.9652498672609
 20
261.4539209372425
 30
0.0
 10
178.0336222577925
 20
261.6006638029317
 30
0.0
 10
178.1347001513564
 20
261.7207973302618
 30
0.0
 10
178.2602667831733
 20
261.8131687717761
 30
0.0
 10
178.4041254528532
 20
261.873958861912
 30
0.0
 10
178.6127933018493
 20
261.9118281342676
 30
0.0
 10
178.7755849319358
 20
261.879545417313
 30
0.0
 10
178.884039276795
 20
261.8580381634345
 30
0.0
  0
SPLINE
  5
3E5
330
1F
100
AcDbEntity
  8
0
  6
SLD-Durchgehend
 62
     8
370
     0
100
AcDbSpline
210
0.0
220
0.0
230
1.0
 70
     8
 71
     3
 72
    10
 73
     6
 74
     0
 42
0.000000001
 43
0.00000001
 40
0.0
 40
0.0
 40
0.0
 40
0.0
 40
0.4995363005845454
 40
0.7496998838241289
 40
1.0
 40
1.0
 40
1.0
 40
1.0
 10
178.0167525147983
 20
260.9235748166609
 30
0.0
 10
177.9929083524223
 20
260.9835101680922
 30
0.0
 10
177.9571232338188
 20
261.0734606400646
 30
0.0
 10
177.9392809025607
 20
261.1978121494645
 30
0.0
 10
177.9413156442659
 20
261.2585502357888
 30
0.0
 10
177.9423332926704
 20
261.2889275640166
 30
0.0
  0
LINE
  5
3E6
330
1F
100
AcDbEntity
  8
0
  6
SLD-Durchgehend
 62
     8
370
     0
100
AcDbLine
 10
177.5504645774
 20
261.1594607905
 30
0.0
 11
178.0167525148
 21
260.9235748167
 31
0.0
  0
ARC
  5
3E7
330
1F
100
AcDbEntity
  8
0
  6
SLD-Durchgehend
 62
     8
370
     0
100
AcDbCircle
 10
198.3091249457
 20
259.6839842884
 30
0.0
 40
20.81103099783845
100
AcDbArc
 50
173.3752711007
 51
175.9343887797
  0
LINE
  5
3E8
330
1F
100
AcDbEntity
  8
0
  6
SLD-Durchgehend
 62
     8
370
     0
100
AcDbLine
 10
177.1268069616
 20
262.2235397304
 30
0.0
 11
177.6370478257
 21
262.0848671967
 31
0.0
  0
ARC
  5
3E9
330
1F
100
AcDbEntity
  8
0
  6
SLD-Durchgehend
 62
     8
370
     0
100
AcDbCircle
 10
197.2829360492
 20
259.8729948553
 30
0.0
 40
20.29272285835573
100
AcDbArc
 50
173.3483892642
 51
177.1562362567
  0
LINE
  5
3EA
330
1F
100
AcDbEntity
  8
0
  6
SLD-Durchgehend
 62
     8
370
     0
100
AcDbLine
 10
178.4707899774
 20
260.1728572516
 30
0.0
 11
177.0152029996
 21
260.8797709161
 31
0.0
  0
LINE
  5
3EB
330
1F
100
AcDbEntity
  8
0
  6
SLD-Durchgehend
 62
     8
370
     0
100
AcDbLine
 10
178.5533610005
 20
260.6052783196
 30
0.0
 11
178.4707899774
 21
260.1728572516
 31
0.0
  0
SPLINE
  5
3EC
330
1F
100
AcDbEntity
  8
0
  6
SLD-Durchgehend
 62
     8
370
     0
100
AcDbSpline
210
0.0
220
0.0
230
1.0
 70
     8
 71
     3
 72
    10
 73
     6
 74
     0
 42
0.000000001
 43
0.00000001
 40
0.0
 40
0.0
 40
0.0
 40
0.0
 40
0.2502497310705795
 40
0.5005662672608194
 40
1.0
 40
1.0
 40
1.0
 40
1.0
 10
178.374543441896
 20
261.0424609321377
 30
0.0
 10
178.3746254632718
 20
261.0038756940553
 30
0.0
 10
178.3747895279193
 20
260.9266949174143
 30
0.0
 10
178.425885441877
 20
260.7701283176791
 30
0.0
 10
178.5023952548877
 20
260.6711866644051
 30
0.0
 10
178.5533610005321
 20
260.6052783196325
 30
0.0
  0
SPLINE
  5
3ED
330
1F
100
AcDbEntity
  8
0
  6
SLD-Durchgehend
 62
     8
370
     0
100
AcDbSpline
210
0.0
220
0.0
230
1.0
 70
     8
 71
     3
 72
    13
 73
     9
 74
     0
 42
0.000000001
 43
0.00000001
 40
0.0
 40
0.0
 40
0.0
 40
0.0
 40
0.2501684594918959
 40
0.3775262099410604
 40
0.5005126412985558
 40
0.6256745096529883
 40
0.7508170192025971
 40
1.0
 40
1.0
 40
1.0
 40
1.0
 10
178.8368421709533
 20
261.3153468758679
 30
0.0
 10
178.7826137669576
 20
261.3273336161144
 30
0.0
 10
178.7007783354519
 20
261.345422661488
 30
0.0
 10
178.5951675636113
 20
261.3354289319285
 30
0.0
 10
178.5216731274918
 20
261.3095955465918
 30
0.0
 10
178.4618830422789
 20
261.2618713693583
 30
0.0
 10
178.3969804582821
 20
261.1802423494204
 30
0.0
 10
178.3835103170581
 20
261.0975247938908
 30
0.0
 10
178.374543441896
 20
261.0424609321377
 30
0.0
  0
SPLINE
  5
3EE
330
1F
100
AcDbEntity
  8
0
  6
SLD-Durchgehend
 62
     8
370
     0
100
AcDbSpline
210
0.0
220
0.0
230
1.0
 70
     8
 71
     3
 72
    13
 73
     9
 74
     0
 42
0.000000001
 43
0.00000001
 40
0.0
 40
0.0
 40
0.0
 40
0.0
 40
0.2491938571043683
 40
0.3743664006684843
 40
0.4995732291120791
 40
0.6247041397736756
 40
0.7498584801188043
 40
1.0
 40
1.0
 40
1.0
 40
1.0
 10
179.2560326885632
 20
260.7630609844731
 30
0.0
 10
179.2552920142475
 20
260.8248115644989
 30
0.0
 10
179.2541792918842
 20
260.9175800727281
 30
0.0
 10
179.2040603193218
 20
261.0386108145225
 30
0.0
 10
179.1537497652907
 20
261.1233217296582
 30
0.0
 10
179.0857108619537
 20
261.1941328616707
 30
0.0
 10
178.9812962252004
 20
261.2678338368792
 30
0.0
 10
178.8946160709977
 20
261.2963442000369
 30
0.0
 10
178.8368421709533
 20
261.3153468758679
 30
0.0
  0
SPLINE
  5
3EF
330
1F
100
AcDbEntity
  8
0
  6
SLD-Durchgehend
 62
     8
370
     0
100
AcDbSpline
210
0.0
220
0.0
230
1.0
 70
     8
 71
     3
 72
    11
 73
     7
 74
     0
 42
0.000000001
 43
0.00000001
 40
0.0
 40
0.0
 40
0.0
 40
0.0
 40
0.2506812907436616
 40
0.5006663579613088
 40
0.7504563167390583
 40
1.0
 40
1.0
 40
1.0
 40
1.0
 10
178.8215477852482
 20
260.4588264482249
 30
0.0
 10
178.8740976110487
 20
260.4545460239136
 30
0.0
 10
178.9790513146816
 20
260.4459970634224
 30
0.0
 10
179.1177508519108
 20
260.5001061954713
 30
0.0
 10
179.2251814196659
 20
260.6051488741109
 30
0.0
 10
179.2457523141763
 20
260.7104409246581
 30
0.0
 10
179.2560326885632
 20
260.7630609844731
 30
0.0
  0
LINE
  5
3F0
330
1F
100
AcDbEntity
  8
0
  6
SLD-Durchgehend
 62
     8
370
     0
100
AcDbLine
 10
178.8610117537
 20
259.9984441853
 30
0.0
 11
178.8215477852
 21
260.4588264482
 31
0.0
  0
SPLINE
  5
3F1
330
1F
100
AcDbEntity
  8
0
  6
SLD-Durchgehend
 62
     8
370
     0
100
AcDbSpline
210
0.0
220
0.0
230
1.0
 70
     8
 71
     3
 72
    12
 73
     8
 74
     0
 42
0.000000001
 43
0.00000001
 40
0.0
 40
0.0
 40
0.0
 40
0.0
 40
0.2498662352292936
 40
0.3748007323326721
 40
0.500451404187256
 40
0.7499171766961089
 40
1.0
 40
1.0
 40
1.0
 40
1.0
 10
179.6998817335134
 20
260.6648623946918
 30
0.0
 10
179.6839317953456
 20
260.5548495015031
 30
0.0
 10
179.6600068000356
 20
260.389829554349
 30
0.0
 10
179.5559530381768
 20
260.2138111159138
 30
0.0
 10
179.4163743091342
 20
260.0753349066739
 30
0.0
 10
179.18320663559
 20
259.9734752889338
 30
0.0
 10
178.9684984514008
 20
259.9901143688666
 30
0.0
 10
178.8610117537331
 20
259.9984441852681
 30
0.0
  0
SPLINE
  5
3F2
330
1F
100
AcDbEntity
  8
0
  6
SLD-Durchgehend
 62
     8
370
     0
100
AcDbSpline
210
0.0
220
0.0
230
1.0
 70
     8
 71
     3
 72
    12
 73
     8
 74
     0
 42
0.000000001
 43
0.00000001
 40
0.0
 40
0.0
 40
0.0
 40
0.0
 40
0.2499943007829688
 40
0.4997815364515946
 40
0.749612662815875
 40
0.8747813554737066
 40
0.9999999999999999
 40
0.9999999999999999
 40
0.9999999999999999
 40
0.9999999999999999
 10
179.4284540579105
 20
261.5038033855378
 30
0.0
 10
179.4755906179033
 20
261.4425313574422
 30
0.0
 10
179.56982469565
 20
261.320038051606
 30
0.0
 10
179.6611113986918
 20
261.1040825790402
 30
0.0
 10
179.6979460886964
 20
260.9182896757947
 30
0.0
 10
179.7053846217431
 20
260.771905350946
 30
0.0
 10
179.7017162735332
 20
260.7005481253269
 30
0.0
 10
179.6998817335134
 20
260.6648623946918
 30
0.0
  0
ARC
  5
3F3
330
1F
100
AcDbEntity
  8
0
  6
SLD-Durchgehend
 62
     8
370
     0
100
AcDbCircle
 10
203.3806094016
 20
258.9084389667
 30
0.0
 40
24.9546718087522
100
AcDbArc
 50
159.6762602281
 51
162.4699715483
  0
LINE
  5
3F4
330
1F
100
AcDbEntity
  8
0
  6
SLD-Durchgehend
 62
     8
370
     0
100
AcDbLine
 10
181.1360348842
 20
267.2614763404
 30
0.0
 11
179.9794880469
 21
267.5758009889
 31
0.0
  0
ARC
  5
3F5
330
1F
100
AcDbEntity
  8
0
  6
SLD-Durchgehend
 62
     8
370
     0
100
AcDbCircle
 10
203.5096096336
 20
258.9709719936
 30
0.0
 40
23.860203464987
100
AcDbArc
 50
158.3183674846
 51
159.6678667162
  0
LINE
  5
3F6
330
1F
100
AcDbEntity
  8
0
  6
SLD-Durchgehend
 62
     8
370
     0
100
AcDbLine
 10
178.6842355998
 20
268.5071953234
 30
0.0
 11
181.3374903997
 21
267.7860975212
 31
0.0
  0
ARC
  5
3F7
330
1F
100
AcDbEntity
  8
0
  6
SLD-Durchgehend
 62
     8
370
     0
100
AcDbCircle
 10
200.8563548339
 20
259.6920697958
 30
0.0
 40
23.86020346515477
100
AcDbArc
 50
158.3183674846
 51
159.6678667161
  0
LINE
  5
3F8
330
1F
100
AcDbEntity
  8
0
  6
SLD-Durchgehend
 62
     8
370
     0
100
AcDbLine
 10
179.5372789135
 20
267.695983956
 30
0.0
 11
178.4827800843
 21
267.9825741426
 31
0.0
  0
ARC
  5
3F9
330
1F
100
AcDbEntity
  8
0
  6
SLD-Durchgehend
 62
     8
370
     0
100
AcDbCircle
 10
202.9384002682
 20
259.0286219338
 30
0.0
 40
24.95467180871441
100
AcDbArc
 50
159.6762602281
 51
162.4699715483
  0
LINE
  5
3FA
330
1F
100
AcDbEntity
  8
0
  6
SLD-Durchgehend
 62
     8
370
     0
100
AcDbLine
 10
178.0881440222
 20
266.8316989356
 30
0.0
 11
179.1426428515
 21
266.545108749
 31
0.0
  0
ARC
  5
3FB
330
1F
100
AcDbEntity
  8
0
  6
SLD-Durchgehend
 62
     8
370
     0
100
AcDbCircle
 10
202.5248510187
 20
259.1084141625
 30
0.0
 40
25.62814422694883
100
AcDbArc
 50
162.4607237488
 51
163.747447952
  0
LINE
  5
3FC
330
1F
100
AcDbEntity
  8
0
  6
SLD-Durchgehend
 62
     8
370
     0
100
AcDbLine
 10
180.57412914
 20
265.5599105993
 30
0.0
 11
177.9208743401
 21
266.2810084015
 31
0.0
  0
ARC
  5
3FD
330
1F
100
AcDbEntity
  8
0
  6
SLD-Durchgehend
 62
     8
370
     0
100
AcDbCircle
 10
205.1781058183
 20
258.3873163603
 30
0.0
 40
25.62814422664216
100
AcDbArc
 50
162.4607237488
 51
163.747447952
  0
LINE
  5
3FE
330
1F
100
AcDbEntity
  8
0
  6
SLD-Durchgehend
 62
     8
370
     0
100
AcDbLine
 10
179.5848519848
 20
266.4249257819
 30
0.0
 11
180.7413988221
 21
266.1106011333
 31
0.0
  0
LINE
  5
3FF
330
1F
100
AcDbEntity
  8
0
  6
SLD-Durchgehend
 62
     8
370
     0
100
AcDbLine
 10
186.1906644425
 20
272.0099358871
 30
0.0
 11
186.1895433871
 21
272.0945590854
 31
0.0
  0
LINE
  5
400
330
1F
100
AcDbEntity
  8
0
  6
SLD-Durchgehend
 62
     8
370
     0
100
AcDbLine
 10
186.5385395117
 20
272.4428872034
 30
0.0
 11
186.5385395117
 21
272.3571450734
 31
0.0
  0
SPLINE
  5
401
330
1F
100
AcDbEntity
  8
0
  6
SLD-Durchgehend
 62
     8
370
     0
100
AcDbSpline
210
0.0
220
0.0
230
1.0
 70
     8
 71
     3
 72
    11
 73
     7
 74
     0
 42
0.000000001
 43
0.00000001
 40
0.0
 40
0.0
 40
0.0
 40
0.0
 40
0.2499170054147947
 40
0.499448714060341
 40
0.7491674938444767
 40
1.0
 40
1.0
 40
1.0
 40
1.0
 10
177.7399431334997
 20
263.5043636853789
 30
0.0
 10
177.7365071690801
 20
263.464213118932
 30
0.0
 10
177.7296405374635
 20
263.3839738861219
 30
0.0
 10
177.7688844096222
 20
263.2639979557359
 30
0.0
 10
177.8483163829148
 20
263.171761484605
 30
0.0
 10
177.9124144810297
 20
263.1284311186067
 30
0.0
 10
177.9445348392059
 20
263.1067177305857
 30
0.0
  0
LINE
  5
402
330
1F
100
AcDbEntity
  8
0
  6
SLD-Durchgehend
 62
     8
370
     0
100
AcDbLine
 10
177.9445348392
 20
263.1067177306
 30
0.0
 11
178.5765630972
 21
262.8704847083
 31
0.0
  0
SPLINE
  5
403
330
1F
100
AcDbEntity
  8
0
  6
SLD-Durchgehend
 62
     8
370
     0
100
AcDbSpline
210
0.0
220
0.0
230
1.0
 70
     8
 71
     3
 72
    13
 73
     9
 74
     0
 42
0.000000001
 43
0.00000001
 40
0.0
 40
0.0
 40
0.0
 40
0.0
 40
0.500635630963229
 40
0.6257760139432473
 40
0.7507896244596343
 40
0.8132249101326773
 40
0.8756963230026417
 40
1.0
 40
1.0
 40
1.0
 40
1.0
 10
178.5765630972494
 20
262.8704847083304
 30
0.0
 10
178.7567683422848
 20
262.8200617170096
 30
0.0
 10
178.9820182305377
 20
262.7570348436345
 30
0.0
 10
179.2548601832659
 20
262.7566425997178
 30
0.0
 10
179.3665098420011
 20
262.7792930994955
 30
0.0
 10
179.4459648782191
 20
262.8242877622916
 30
0.0
 10
179.5081436739157
 20
262.895583194289
 30
0.0
 10
179.5289487809007
 20
262.9669143845929
 30
0.0
 10
179.5427951203692
 20
263.014387145793
 30
0.0
  0
SPLINE
  5
404
330
1F
100
AcDbEntity
  8
0
  6
SLD-Durchgehend
 62
     8
370
     0
100
AcDbSpline
210
0.0
220
0.0
230
1.0
 70
     8
 71
     3
 72
    11
 73
     7
 74
     0
 42
0.000000001
 43
0.00000001
 40
0.0
 40
0.0
 40
0.0
 40
0.0
 40
0.2499392313601127
 40
0.4994125088665952
 40
0.7491423993428165
 40
1.0
 40
1.0
 40
1.0
 40
1.0
 10
179.5427951203692
 20
263.014387145793
 30
0.0
 10
179.54638858732
 20
263.0545745914019
 30
0.0
 10
179.5535688220341
 20
263.1348745624282
 30
0.0
 10
179.5159246686011
 20
263.2552325170532
 30
0.0
 10
179.4382067217649
 20
263.3479283570065
 30
0.0
 10
179.3748157260584
 20
263.3914386914859
 30
0.0
 10
179.3430488254308
 20
263.4132428681875
 30
0.0
  0
LINE
  5
405
330
1F
100
AcDbEntity
  8
0
  6
SLD-Durchgehend
 62
     8
370
     0
100
AcDbLine
 10
179.3430488254
 20
263.4132428682
 30
0.0
 11
178.7151549715
 21
263.6493989694
 31
0.0
  0
SPLINE
  5
406
330
1F
100
AcDbEntity
  8
0
  6
SLD-Durchgehend
 62
     8
370
     0
100
AcDbSpline
210
0.0
220
0.0
230
1.0
 70
     8
 71
     3
 72
    13
 73
     9
 74
     0
 42
0.000000001
 43
0.00000001
 40
0.0
 40
0.0
 40
0.0
 40
0.0
 40
0.5006601813352498
 40
0.6257925507401796
 40
0.7507598431245456
 40
0.813237384816766
 40
0.8757066680162079
 40
1.0
 40
1.0
 40
1.0
 40
1.0
 10
178.7151549714544
 20
263.6493989693716
 30
0.0
 10
178.5346855217803
 20
263.7003234235421
 30
0.0
 10
178.3091104881495
 20
263.7639756676358
 30
0.0
 10
178.0339202367059
 20
263.7621921295454
 30
0.0
 10
177.9204603281297
 20
263.7400912235983
 30
0.0
 10
177.8398478647458
 20
263.6942454458153
 30
0.0
 10
177.775297953346
 20
263.6235224386832
 30
0.0
 10
177.7540703938862
 20
263.5519777516525
 30
0.0
 10
177.7399431334997
 20
263.5043636853789
 30
0.0
  0
LINE
  5
407
330
1F
100
AcDbEntity
  8
0
  6
SLD-Durchgehend
 62
     8
370
     0
100
AcDbLine
 10
186.2007606804
 20
272.3059794299
 30
0.0
 11
186.2007606804
 21
272.3916960144
 31
0.0
  0
LINE
  5
408
330
1F
100
AcDbEntity
  8
0
  6
SLD-Durchgehend
 62
     8
370
     0
100
AcDbLine
 10
180.0098344613
 20
274.0742571052
 30
0.0
 11
180.0098344613
 21
273.9885405208
 31
0.0
  0
LWPOLYLINE
  5
409
330
1F
100
AcDbEntity
  8
0
  6
SLD-Durchgehend
 62
     8
370
     0
100
AcDbPolyline
 90
        8
 70
   128
 43
0.0
 10
130.2249513661
 20
275.2603885444
 10
130.2577682883
 20
274.5073430372
 10
130.3554495179
 20
273.836008579
 10
130.5157057852
 20
273.2621209874
 10
130.7347804626
 20
272.7991313105
 10
131.0075391009
 20
272.4578920711
 10
131.3275880877
 20
272.246401373
 10
131.3929033382
 20
272.2214288786
  0
LWPOLYLINE
  5
40A
330
1F
100
AcDbEntity
  8
0
  6
SLD-Durchgehend
 62
     8
370
     0
100
AcDbPolyline
 90
       15
 70
   128
 43
0.0
 10
134.4860660325
 20
283.8069092173
 10
134.1705864575
 20
283.8044590949
 10
133.7671176153
 20
283.6768109153
 10
133.346257066
 20
283.4159491379
 10
132.9178694681
 20
283.0279890564
 10
132.4919958101
 20
282.5220228916
 10
132.0786181725
 20
281.9099109491
 10
131.6874259031
 20
281.2060003113
 10
131.3275880877
 20
280.4267902023
 10
131.0075391009
 20
279.5905442588
 10
130.7347804626
 20
278.7168634337
 10
130.5157057852
 20
277.8262265545
 10
130.3554495179
 20
276.9395089035
 10
130.2577682883
 20
276.0774946959
 10
130.2249513661
 20
275.2603885444
  0
LINE
  5
40B
330
1F
100
AcDbEntity
  8
0
  6
SLD-Durchgehend
 62
     8
370
     0
100
AcDbLine
 10
129.1343910269
 20
276.5102888004
 30
0.0
 11
130.1532221034
 21
276.2333923448
 31
0.0
  0
LINE
  5
40C
330
1F
100
AcDbEntity
  8
0
  6
SLD-Durchgehend
 62
     8
370
     0
100
AcDbLine
 10
130.1448161871
 20
280.7108720511
 30
0.0
 11
129.1343910269
 21
276.5102888004
 31
0.0
  0
LINE
  5
40D
330
1F
100
AcDbEntity
  8
0
  6
SLD-Durchgehend
 62
     8
370
     0
100
AcDbLine
 10
131.1942024436
 20
280.4256713522
 30
0.0
 11
130.1448161871
 21
280.7108720511
 31
0.0
  0
ARC
  5
40E
330
1F
100
AcDbEntity
  8
0
  6
SLD-Durchgehend
 62
     8
370
     0
100
AcDbCircle
 10
130.2281527724
 20
281.1747619907
 30
0.0
 40
0.4713160961795482
100
AcDbArc
 50
241.4355861008
 51
259.8156002954
  0
ARC
  5
40F
330
1F
100
AcDbEntity
  8
0
  6
SLD-Durchgehend
 62
     8
370
     0
100
AcDbCircle
 10
129.2177288002
 20
276.9741833074
 30
0.0
 40
0.4713208015803557
100
AcDbArc
 50
241.4357330748
 51
259.8155563238
  0
LINE
  5
410
330
1F
100
AcDbEntity
  8
0
  6
SLD-Durchgehend
 62
     8
370
     0
100
AcDbLine
 10
130.2458587358
 20
280.9166388059
 30
0.0
 11
131.2850972723
 21
280.6341960398
 31
0.0
  0
ARC
  5
411
330
1F
100
AcDbEntity
  8
0
  6
SLD-Durchgehend
 62
     8
370
     0
100
AcDbCircle
 10
130.5847992238
 20
280.6225087468
 30
0.0
 40
0.4487684771180279
100
AcDbArc
 50
139.0487960013
 51
168.6441592492
  0
LINE
  5
412
330
1F
100
AcDbEntity
  8
0
  6
SLD-Durchgehend
 62
     8
370
     0
100
AcDbLine
 10
132.2667090562
 20
282.8890506706
 30
0.0
 11
130.2458587358
 21
280.9166388059
 31
0.0
  0
LINE
  5
413
330
1F
100
AcDbEntity
  8
0
  6
SLD-Durchgehend
 62
     8
370
     0
100
AcDbLine
 10
132.6214509393
 20
282.792639428
 30
0.0
 11
132.2667090562
 21
282.8890506706
 31
0.0
  0
LINE
  5
414
330
1F
100
AcDbEntity
  8
0
  6
SLD-Durchgehend
 62
     8
370
     0
100
AcDbLine
 10
130.1385935722
 20
276.0230762308
 30
0.0
 11
129.1343910269
 21
276.2959969651
 31
0.0
  0
ARC
  5
415
330
1F
100
AcDbEntity
  8
0
  6
SLD-Durchgehend
 62
     8
370
     0
100
AcDbCircle
 10
129.4844692873
 20
276.4031428828
 30
0.0
 40
0.3661079568424051
100
AcDbArc
 50
162.9826014786
 51
197.0173985214
  0
LINE
  5
416
330
1F
100
AcDbEntity
  8
0
  6
SLD-Durchgehend
 62
     8
370
     0
100
AcDbLine
 10
129.1343910269
 20
276.2959969651
 30
0.0
 11
130.1448161871
 21
274.0678255792
 31
0.0
  0
LINE
  5
417
330
1F
100
AcDbEntity
  8
0
  6
SLD-Durchgehend
 62
     8
370
     0
100
AcDbLine
 10
130.1448161871
 20
274.0678255792
 30
0.0
 11
130.2131683289
 21
274.0492489317
 31
0.0
  0
ARC
  5
418
330
1F
100
AcDbEntity
  8
0
  6
SLD-Durchgehend
 62
     8
370
     0
100
AcDbCircle
 10
130.1887890811
 20
280.7497111197
 30
0.0
 40
0.1764137122808424
100
AcDbArc
 50
71.1253395292
 51
131.7846371372
  0
ARC
  5
419
330
1F
100
AcDbEntity
  8
0
  6
SLD-Durchgehend
 62
     8
370
     0
100
AcDbCircle
 10
132.2096394015
 20
282.7221229845
 30
0.0
 40
0.176413712280635
100
AcDbArc
 50
71.1253395291
 51
131.7846371372
  0
ARC
  5
41A
330
1F
100
AcDbEntity
  8
0
  6
SLD-Durchgehend
 62
     8
370
     0
100
AcDbCircle
 10
129.1791885486
 20
276.4808138352
 30
0.0
 40
0.1901685921097148
100
AcDbArc
 50
205.6436032333
 51
256.3749283323
  0
ARC
  5
41B
330
1F
100
AcDbEntity
  8
0
  6
SLD-Durchgehend
 62
     8
370
     0
100
AcDbCircle
 10
130.1896143894
 20
274.2526433952
 30
0.0
 40
0.1901696717493934
100
AcDbArc
 50
205.6438069851
 51
256.3747961744
  0
ARC
  5
41C
330
1F
100
AcDbEntity
  8
0
  6
SLD-Durchgehend
 62
     8
370
     0
100
AcDbCircle
 10
132.3224350408
 20
282.8467257762
 30
0.0
 40
0.0699770108712775
100
AcDbArc
 50
81.9161882363
 51
142.7826715909
  0
ARC
  5
41D
330
1F
100
AcDbEntity
  8
0
  6
SLD-Durchgehend
 62
     8
370
     0
100
AcDbCircle
 10
130.1989002193
 20
274.0864241767
 30
0.0
 40
0.0571925726314685
100
AcDbArc
 50
198.977239884
 51
251.0130734599
  0
LINE
  5
41E
330
1F
100
AcDbEntity
  8
0
  6
SLD-Durchgehend
 62
     8
370
     0
100
AcDbLine
 10
188.2053653433
 20
259.7102249073
 30
0.0
 11
188.1820306135
 21
259.6874494957
 31
0.0
  0
LINE
  5
41F
330
1F
100
AcDbEntity
  8
0
  6
SLD-Durchgehend
 62
     8
370
     0
100
AcDbLine
 10
188.2053653433
 20
257.9986375963
 30
0.0
 11
188.1820306135
 21
257.9758621847
 31
0.0
  0
LINE
  5
420
330
1F
100
AcDbEntity
  8
0
  6
SLD-Durchgehend
 62
     8
370
     0
100
AcDbLine
 10
188.2022650172
 20
256.6854403795
 30
0.0
 11
188.1789302874
 21
256.6626649679
 31
0.0
  0
LINE
  5
421
330
1F
100
AcDbEntity
  8
0
  6
SLD-Durchgehend
 62
     8
370
     0
100
AcDbLine
 10
188.2022650172
 20
255.646949141
 30
0.0
 11
188.1789302874
 21
255.6241737293
 31
0.0
  0
ENDSEC
  0
SECTION
  2
OBJECTS
  0
DICTIONARY
  5
C
330
0
100
AcDbDictionary
281
     1
  3
ACAD_GROUP
350
D
  3
ACAD_LAYOUT
350
1A
  3
ACAD_MLINESTYLE
350
17
  3
ACAD_PLOTSETTINGS
350
19
  3
ACAD_PLOTSTYLENAME
350
E
  3
ACAD_SCALELIST
350
47
  0
DICTIONARY
  5
D
102
{ACAD_REACTORS
330
C
102
}
330
C
100
AcDbDictionary
281
     1
  0
DICTIONARY
  5
1A
102
{ACAD_REACTORS
330
C
102
}
330
C
100
AcDbDictionary
281
     1
  3
Layout1
350
1E
  3
Layout2
350
26
  3
Model
350
22
  0
DICTIONARY
  5
17
102
{ACAD_REACTORS
330
C
102
}
330
C
100
AcDbDictionary
281
     1
  3
Standard
350
18
  0
DICTIONARY
  5
19
102
{ACAD_REACTORS
330
C
102
}
330
C
100
AcDbDictionary
281
     1
  0
ACDBDICTIONARYWDFLT
  5
E
102
{ACAD_REACTORS
330
C
102
}
330
C
100
AcDbDictionary
281
     1
  3
Normal
350
F
100
AcDbDictionaryWithDefault
340
F
  0
DICTIONARY
  5
47
102
{ACAD_REACTORS
330
C
102
}
330
C
100
AcDbDictionary
281
     1
  3
A0
350
48
  3
A1
350
49
  3
A2
350
4A
  3
A3
350
4B
  3
A4
350
4C
  3
A5
350
4D
  3
A6
350
4E
  3
A7
350
4F
  3
A8
350
50
  3
A9
350
51
  3
B0
350
52
  3
B1
350
53
  3
B2
350
54
  3
B3
350
55
  3
B4
350
56
  3
B5
350
57
  3
B6
350
58
  3
B7
350
59
  3
B8
350
5A
  3
B9
350
5B
  3
C0
350
5C
  3
C1
350
5D
  3
C2
350
5E
  3
C3
350
5F
  3
C4
350
60
  3
C5
350
61
  3
C6
350
62
  3
C7
350
63
  3
C8
350
64
  3
C9
350
65
  3
D0
350
66
  3
D1
350
67
  3
D2
350
68
  0
LAYOUT
  5
1E
102
{ACAD_REACTORS
330
1A
102
}
330
1A
100
AcDbPlotSettings
  1

  2
none_device
  4

  6

 40
0.0
 41
0.0
 42
0.0
 43
0.0
 44
0.0
 45
0.0
 46
0.0
 47
0.0
 48
0.0
 49
0.0
140
0.0
141
0.0
142
1.0
143
1.0
 70
   688
 72
     1
 73
     0
 74
     5
  7

 75
    16
147
1.0
148
0.0
149
0.0
100
AcDbLayout
  1
Layout1
 70
     1
 71
     1
 10
0.0
 20
0.0
 11
420.0
 21
297.0
 12
0.0
 22
0.0
 32
0.0
 14
1.0000000000E+20
 24
1.0000000000E+20
 34
1.0000000000E+20
 15
-1.0000000000E+20
 25
-1.0000000000E+20
 35
-1.0000000000E+20
146
0.0
 13
0.0
 23
0.0
 33
0.0
 16
1.0
 26
0.0
 36
0.0
 17
0.0
 27
1.0
 37
0.0
 76
     0
330
1B
  0
LAYOUT
  5
26
102
{ACAD_REACTORS
330
1A
102
}
330
1A
100
AcDbPlotSettings
  1

  2
none_device
  4

  6

 40
0.0
 41
0.0
 42
0.0
 43
0.0
 44
0.0
 45
0.0
 46
0.0
 47
0.0
 48
0.0
 49
0.0
140
0.0
141
0.0
142
1.0
143
1.0
 70
   688
 72
     1
 73
     0
 74
     5
  7

 75
    16
147
1.0
148
0.0
149
0.0
100
AcDbLayout
  1
Layout2
 70
     1
 71
     2
 10
0.0
 20
0.0
 11
0.0
 21
0.0
 12
0.0
 22
0.0
 32
0.0
 14
0.0
 24
0.0
 34
0.0
 15
0.0
 25
0.0
 35
0.0
146
0.0
 13
0.0
 23
0.0
 33
0.0
 16
1.0
 26
0.0
 36
0.0
 17
0.0
 27
1.0
 37
0.0
 76
     0
330
23
  0
LAYOUT
  5
22
102
{ACAD_REACTORS
330
1A
102
}
330
1A
100
AcDbPlotSettings
  1

  2
none_device
  4
Letter_(8.50_x_11.00_Inches)
  6

 40
6.35
 41
6.35
 42
6.35000508
 43
6.35000508
 44
215.9
 45
279.4
 46
0.0
 47
0.0
 48
0.0
 49
0.0
140
0.0
141
0.0
142
1.0
143
1.0
 70
  1712
 72
     1
 73
     0
 74
     0
  7

 75
     0
147
1.0
148
0.0
149
0.0
100
AcDbLayout
  1
Model
 70
     1
 71
     0
 10
0.0
 20
0.0
 11
210.0
 21
297.0
 12
0.0
 22
0.0
 32
0.0
 14
0.0
 24
0.0
 34
0.0
 15
210.0
 25
297.0
 35
0.0
146
0.0
 13
0.0
 23
0.0
 33
0.0
 16
1.0
 26
0.0
 36
0.0
 17
0.0
 27
1.0
 37
0.0
 76
     0
330
1F
331
29
  0
MLINESTYLE
  5
18
102
{ACAD_REACTORS
330
17
102
}
330
17
100
AcDbMlineStyle
  2
Standard
 70
     0
  3

 62
   256
 51
90.0
 52
90.0
 71
     2
 49
0.5
 62
   256
  6
BYLAYER
 49
-0.5
 62
   256
  6
BYLAYER
  0
ACDBPLACEHOLDER
  5
F
102
{ACAD_REACTORS
330
E
102
}
330
E
  0
SCALE
  5
48
102
{ACAD_REACTORS
330
47
102
}
330
47
100
AcDbScale
 70
     0
300
1:1
140
1.0
141
1.0
290
     1
  0
SCALE
  5
49
102
{ACAD_REACTORS
330
47
102
}
330
47
100
AcDbScale
 70
     0
300
1:2
140
1.0
141
2.0
290
     0
  0
SCALE
  5
4A
102
{ACAD_REACTORS
330
47
102
}
330
47
100
AcDbScale
 70
     0
300
1:4
140
1.0
141
4.0
290
     0
  0
SCALE
  5
4B
102
{ACAD_REACTORS
330
47
102
}
330
47
100
AcDbScale
 70
     0
300
1:5
140
1.0
141
5.0
290
     0
  0
SCALE
  5
4C
102
{ACAD_REACTORS
330
47
102
}
330
47
100
AcDbScale
 70
     0
300
1:8
140
1.0
141
8.0
290
     0
  0
SCALE
  5
4D
102
{ACAD_REACTORS
330
47
102
}
330
47
100
AcDbScale
 70
     0
300
1:10
140
1.0
141
10.0
290
     0
  0
SCALE
  5
4E
102
{ACAD_REACTORS
330
47
102
}
330
47
100
AcDbScale
 70
     0
300
1:16
140
1.0
141
16.0
290
     0
  0
SCALE
  5
4F
102
{ACAD_REACTORS
330
47
102
}
330
47
100
AcDbScale
 70
     0
300
1:20
140
1.0
141
20.0
290
     0
  0
SCALE
  5
50
102
{ACAD_REACTORS
330
47
102
}
330
47
100
AcDbScale
 70
     0
300
1:30
140
1.0
141
30.0
290
     0
  0
SCALE
  5
51
102
{ACAD_REACTORS
330
47
102
}
330
47
100
AcDbScale
 70
     0
300
1:40
140
1.0
141
40.0
290
     0
  0
SCALE
  5
52
102
{ACAD_REACTORS
330
47
102
}
330
47
100
AcDbScale
 70
     0
300
1:50
140
1.0
141
50.0
290
     0
  0
SCALE
  5
53
102
{ACAD_REACTORS
330
47
102
}
330
47
100
AcDbScale
 70
     0
300
1:100
140
1.0
141
100.0
290
     0
  0
SCALE
  5
54
102
{ACAD_REACTORS
330
47
102
}
330
47
100
AcDbScale
 70
     0
300
2:1
140
2.0
141
1.0
290
     0
  0
SCALE
  5
55
102
{ACAD_REACTORS
330
47
102
}
330
47
100
AcDbScale
 70
     0
300
4:1
140
4.0
141
1.0
290
     0
  0
SCALE
  5
56
102
{ACAD_REACTORS
330
47
102
}
330
47
100
AcDbScale
 70
     0
300
8:1
140
8.0
141
1.0
290
     0
  0
SCALE
  5
57
102
{ACAD_REACTORS
330
47
102
}
330
47
100
AcDbScale
 70
     0
300
10:1
140
10.0
141
1.0
290
     0
  0
SCALE
  5
58
102
{ACAD_REACTORS
330
47
102
}
330
47
100
AcDbScale
 70
     0
300
100:1
140
100.0
141
1.0
290
     0
  0
SCALE
  5
59
102
{ACAD_REACTORS
330
47
102
}
330
47
100
AcDbScale
 70
     0
300
1/128" = 1'-0"
140
0.0078125
141
12.0
290
     0
  0
SCALE
  5
5A
102
{ACAD_REACTORS
330
47
102
}
330
47
100
AcDbScale
 70
     0
300
1/64" = 1'-0"
140
0.015625
141
12.0
290
     0
  0
SCALE
  5
5B
102
{ACAD_REACTORS
330
47
102
}
330
47
100
AcDbScale
 70
     0
300
1/32" = 1'-0"
140
0.03125
141
12.0
290
     0
  0
SCALE
  5
5C
102
{ACAD_REACTORS
330
47
102
}
330
47
100
AcDbScale
 70
     0
300
1/16" = 1'-0"
140
0.0625
141
12.0
290
     0
  0
SCALE
  5
5D
102
{ACAD_REACTORS
330
47
102
}
330
47
100
AcDbScale
 70
     0
300
3/32" = 1'-0"
140
0.09375
141
12.0
290
     0
  0
SCALE
  5
5E
102
{ACAD_REACTORS
330
47
102
}
330
47
100
AcDbScale
 70
     0
300
1/8" = 1'-0"
140
0.125
141
12.0
290
     0
  0
SCALE
  5
5F
102
{ACAD_REACTORS
330
47
102
}
330
47
100
AcDbScale
 70
     0
300
3/16" = 1'-0"
140
0.1875
141
12.0
290
     0
  0
SCALE
  5
60
102
{ACAD_REACTORS
330
47
102
}
330
47
100
AcDbScale
 70
     0
300
1/4" = 1'-0"
140
0.25
141
12.0
290
     0
  0
SCALE
  5
61
102
{ACAD_REACTORS
330
47
102
}
330
47
100
AcDbScale
 70
     0
300
3/8" = 1'-0"
140
0.375
141
12.0
290
     0
  0
SCALE
  5
62
102
{ACAD_REACTORS
330
47
102
}
330
47
100
AcDbScale
 70
     0
300
1/2" = 1'-0"
140
0.5
141
12.0
290
     0
  0
SCALE
  5
63
102
{ACAD_REACTORS
330
47
102
}
330
47
100
AcDbScale
 70
     0
300
3/4" = 1'-0"
140
0.75
141
12.0
290
     0
  0
SCALE
  5
64
102
{ACAD_REACTORS
330
47
102
}
330
47
100
AcDbScale
 70
     0
300
1" = 1'-0"
140
1.0
141
12.0
290
     0
  0
SCALE
  5
65
102
{ACAD_REACTORS
330
47
102
}
330
47
100
AcDbScale
 70
     0
300
1-1/2" = 1'-0"
140
1.5
141
12.0
290
     0
  0
SCALE
  5
66
102
{ACAD_REACTORS
330
47
102
}
330
47
100
AcDbScale
 70
     0
300
3" = 1'-0"
140
3.0
141
12.0
290
     0
  0
SCALE
  5
67
102
{ACAD_REACTORS
330
47
102
}
330
47
100
AcDbScale
 70
     0
300
6" = 1'-0"
140
6.0
141
12.0
290
     0
  0
SCALE
  5
68
102
{ACAD_REACTORS
330
47
102
}
330
47
100
AcDbScale
 70
     0
300
1'-0" = 1'-0"
140
12.0
141
12.0
290
     0
  0
ENDSEC
  0
EOF
